Featured TV Shows


Chicago Fire S06E12

Posted By: Tavaz
1080p (FullHD) / BDRip IMDb
Chicago Fire S06E12

Chicago Fire S06E12
BluRay Remux | MKV | 1920x1080 | English | H264 @ 30342 kbps | DTS | 40 min 53 s | 9.71 GiB
Subtitles: German, English
Genre: Drama

An edge-of-your-seat view into the lives of everyday heroes committed to one of America's noblest professions. For the firefighters, rescue squad and paramedics of Chicago Firehouse 51, no occupation is more stressful or dangerous, yet so rewarding and exhilarating. These courageous men and women are among the elite who forge headfirst into danger when everyone else is running the other way and whose actions make the difference between life and death.

Chicago.Fire.S06E12.The.F.Is.For.1080p.BluRay.REMUX.AVC.DTS-HD.MA.5.1-EPSiLON=8f01cadcc92bcdc22cd3003ce3ed0448c85f1818.part1.rar (5.1 GB)
Chicago.Fire.S06E12.The.F.Is.For.1080p.BluRay.REMUX.AVC.DTS-HD.MA.5.1-EPSiLON=8f01cadcc92bcdc22cd3003ce3ed0448c85f1818.part2.rar (4.7 GB)



General
Unique ID : 142237090943662020942004920647527885371 (0x6B01DE0515CB0E41A290CE2A4C6EEA3B)
Complete name : ./Chicago.Fire.S06E12.The.F.Is.For.1080p.BluRay.REMUX.AVC.DTS-HD.MA.5.1-EPSiLON.mkv
Format : Matroska
Format version : Version 4 / Version 2
File size : 9.71 GiB
Duration : 40 min 53 s
Overall bit rate mode : Variable
Overall bit rate : 34.0 Mb/s
Movie name : Chicago Fire - S06E12 - The F Is For
Encoded date : UTC 2018-10-02 14:03:50
Writing application : mkvmerge v27.0.0 ('Metropolis') 64-bit
Writing library : libebml v1.3.6 + libmatroska v1.4.9

Video
ID : 1
Format : AVC
Format/Info : Advanced Video Codec
Format profile : High@L4.1
Format settings : CABAC / 4 Ref Frames
Format settings, CABAC : Yes
Format settings, RefFrames : 4 frames
Codec ID : V_MPEG4/ISO/AVC
Duration : 40 min 53 s
Bit rate mode : Variable
Bit rate : 30.3 Mb/s
Maximum bit rate : 35.0 Mb/s
Width : 1 920 pixels
Height : 1 080 pixels
Display aspect ratio : 16:9
Frame rate mode : Constant
Frame rate : 23.976 (24000/1001) FPS
Color space : YUV
Chroma subsampling : 4:2:0
Bit depth : 8 bits
Scan type : Progressive
Bits/(Pixel*Frame) : 0.610
Stream size : 8.67 GiB (89%)
Title : MPEG-4 AVC Video / 30993 kbps / 1080p / 23.976 fps / 16:9 / High Profile 4.1
Language : English
Default : Yes
Forced : No

Audio
ID : 2
Format : DTS
Format/Info : Digital Theater Systems
Format profile : MA / Core
Mode : 16
Format settings, Endianness : Big
Codec ID : A_DTS
Duration : 40 min 53 s
Bit rate mode : Variable / Constant
Bit rate : 3 585 kb/s / 1 509 kb/s
Channel(s) : 6 channels
Channel positions : Front: L C R, Side: L R, LFE
Sampling rate : 48.0 kHz
Frame rate : 93.750 FPS (512 SPF)
Bit depth : 24 bits
Compression mode : Lossless / Lossy
Stream size : 1.02 GiB (11%)
Title : DTS-HD Master Audio / 5.1 / 48 kHz / 3585 kbps / 24-bit
Language : English
Default : Yes
Forced : No

Text #1
ID : 3
Format : PGS
Codec ID : S_HDMV/PGS
Codec ID/Info : Picture based subtitle format used on BDs/HD-DVDs
Duration : 40 min 15 s
Bit rate : 46.9 kb/s
Count of elements : 1397
Stream size : 13.5 MiB (0%)
Title : SDH
Language : English
Default : No
Forced : No

Text #2
ID : 4
Format : PGS
Codec ID : S_HDMV/PGS
Codec ID/Info : Picture based subtitle format used on BDs/HD-DVDs
Duration : 40 min 49 s
Bit rate : 41.2 kb/s
Count of elements : 1196
Stream size : 12.0 MiB (0%)
Language : German
Default : No
Forced : No

Menu
00:00:00.000 : en:Chapter 1
00:01:42.060 : en:Chapter 2
00:21:38.130 : en:Chapter 3
00:32:55.807 : en:Chapter 4





Chicago Fire S06E12


Chicago Fire S06E12


Chicago Fire S06E12


Chicago Fire S06E12


Chicago Fire S06E12

All episodes