Featured TV Shows


Chicago Fire S06E16

Posted By: Tavaz
1080p (FullHD) / WEBRip IMDb
Chicago Fire S06E16

Chicago Fire S06E16
WEBRip | MKV | 1920x1080 | English | H264 @ 4096 kbps | AAC @ 96 kbps | 41 min 9 s | 1.21 GiB
Genre: Drama

An edge-of-your-seat view into the lives of everyday heroes committed to one of America's noblest professions. For the firefighters, rescue squad and paramedics of Chicago Firehouse 51, no occupation is more stressful or dangerous, yet so rewarding and exhilarating. These courageous men and women are among the elite who forge headfirst into danger when everyone else is running the other way and whose actions make the difference between life and death.

d160efc21618497f8fb09f2c724d9223.mkv (1.2 GB)



General
Unique ID : 157023007164801279788958311245531575879 (0x762187F9292AC6A9C35EF54C1F5BF647)
Complete name : ./d160efc21618497f8fb09f2c724d9223.mkv
Format : Matroska
Format version : Version 4 / Version 2
File size : 1.21 GiB
Duration : 41 min 9 s
Overall bit rate : 4 193 kb/s
Encoded date : UTC 2018-03-30 09:06:07
Writing application : mkvmerge v21.0.0 ('Tardigrades Will Inherit The Earth') 64-bit
Writing library : libebml v1.3.5 + libmatroska v1.4.8

Video
ID : 1
Format : AVC
Format/Info : Advanced Video Codec
Format profile : Main@L4
Format settings : CABAC / 1 Ref Frames
Format settings, CABAC : Yes
Format settings, RefFrames : 1 frame
Format settings, GOP : M=1, N=48
Codec ID : V_MPEG4/ISO/AVC
Duration : 41 min 9 s
Bit rate : 4 096 kb/s
Width : 1 920 pixels
Height : 1 080 pixels
Display aspect ratio : 16:9
Frame rate mode : Constant
Frame rate : 23.976 (24000/1001) FPS
Color space : YUV
Chroma subsampling : 4:2:0
Bit depth : 8 bits
Scan type : Progressive
Bits/(Pixel*Frame) : 0.082
Stream size : 1.18 GiB (98%)
Writing library : x264 core 120
Encoding settings : cabac=1 / ref=1 / deblock=1:0:0 / analyse=0x1:0x111 / me=hex / subme=6 / psy=1 / psy_rd=1.00:0.00 / mixed_ref=0 / me_range=16 / chroma_me=0 / trellis=1 / 8x8dct=0 / cqm=0 / deadzone=21,11 / fast_pskip=1 / chroma_qp_offset=-2 / threads=8 / sliced_threads=0 / nr=0 / decimate=1 / interlaced=0 / bluray_compat=0 / constrained_intra=0 / bframes=0 / weightp=2 / keyint=48 / keyint_min=25 / scenecut=0 / intra_refresh=0 / rc=abr / mbtree=0 / bitrate=4096 / ratetol=1.0 / qcomp=0.60 / qpmin=10 / qpmax=51 / qpstep=4 / ip_ratio=1.40 / aq=1:1.00
Default : Yes
Forced : No

Audio
ID : 2
Format : AAC
Format/Info : Advanced Audio Codec
Format profile : LC
Codec ID : A_AAC-2
Duration : 41 min 9 s
Bit rate : 96.0 kb/s
Channel(s) : 2 channels
Channel positions : Front: L R
Sampling rate : 44.1 kHz
Frame rate : 43.066 FPS (1024 SPF)
Compression mode : Lossy
Stream size : 28.2 MiB (2%)
Default : Yes
Forced : No





Chicago Fire S06E16


Chicago Fire S06E16


Chicago Fire S06E16


Chicago Fire S06E16


Chicago Fire S06E16

All episodes