Featured TV Shows


Chicago Fire S06E20

Posted By: Tavaz
1080p (FullHD) / BDRip IMDb
Chicago Fire S06E20

Chicago Fire S06E20
BluRay Remux | MKV | 1920x1080 | English | H264 @ 28937 kbps | DTS | 41 min 0 s | 9.31 GiB
Subtitles: German, English
Genre: Drama

An edge-of-your-seat view into the lives of everyday heroes committed to one of America's noblest professions. For the firefighters, rescue squad and paramedics of Chicago Firehouse 51, no occupation is more stressful or dangerous, yet so rewarding and exhilarating. These courageous men and women are among the elite who forge headfirst into danger when everyone else is running the other way and whose actions make the difference between life and death.

Chicago.Fire.S06E20.The.Strongest.Among.Us.1080p.BluRay.REMUX.AVC.DTS-HD.MA.5.1-EPSiLON=8d74648e8cc649816b4bda953a9b4a5d2fce32ca.part1.rar (4.9 GB)
Chicago.Fire.S06E20.The.Strongest.Among.Us.1080p.BluRay.REMUX.AVC.DTS-HD.MA.5.1-EPSiLON=8d74648e8cc649816b4bda953a9b4a5d2fce32ca.part2.rar (4.5 GB)



General
Unique ID : 185331772255623783518883436019351801554 (0x8B6D99DA0B6919CCEE0759F689F7CED2)
Complete name : ./Chicago.Fire.S06E20.The.Strongest.Among.Us.1080p.BluRay.REMUX.AVC.DTS-HD.MA.5.1-EPSiLON.mkv
Format : Matroska
Format version : Version 4 / Version 2
File size : 9.31 GiB
Duration : 41 min 0 s
Overall bit rate mode : Variable
Overall bit rate : 32.5 Mb/s
Movie name : Chicago Fire - S06E20 - The Strongest Among Us
Encoded date : UTC 2018-10-02 15:44:15
Writing application : mkvmerge v27.0.0 ('Metropolis') 64-bit
Writing library : libebml v1.3.6 + libmatroska v1.4.9

Video
ID : 1
Format : AVC
Format/Info : Advanced Video Codec
Format profile : High@L4.1
Format settings : CABAC / 4 Ref Frames
Format settings, CABAC : Yes
Format settings, RefFrames : 4 frames
Codec ID : V_MPEG4/ISO/AVC
Duration : 40 min 59 s
Bit rate mode : Variable
Bit rate : 28.9 Mb/s
Maximum bit rate : 35.0 Mb/s
Width : 1 920 pixels
Height : 1 080 pixels
Display aspect ratio : 16:9
Frame rate mode : Constant
Frame rate : 23.976 (24000/1001) FPS
Color space : YUV
Chroma subsampling : 4:2:0
Bit depth : 8 bits
Scan type : Progressive
Bits/(Pixel*Frame) : 0.582
Stream size : 8.29 GiB (89%)
Title : MPEG-4 AVC Video / 29495 kbps / 1080p / 23.976 fps / 16:9 / High Profile 4.1
Language : English
Default : Yes
Forced : No

Audio
ID : 2
Format : DTS
Format/Info : Digital Theater Systems
Format profile : MA / Core
Mode : 16
Format settings, Endianness : Big
Codec ID : A_DTS
Duration : 41 min 0 s
Bit rate mode : Variable / Constant
Bit rate : 3 470 kb/s / 1 509 kb/s
Channel(s) : 6 channels
Channel positions : Front: L C R, Side: L R, LFE
Sampling rate : 48.0 kHz
Frame rate : 93.750 FPS (512 SPF)
Bit depth : 24 bits
Compression mode : Lossless / Lossy
Stream size : 1 017 MiB (11%)
Title : DTS-HD Master Audio / 5.1 / 48 kHz / 3470 kbps / 24-bit
Language : English
Default : Yes
Forced : No

Text #1
ID : 3
Format : PGS
Codec ID : S_HDMV/PGS
Codec ID/Info : Picture based subtitle format used on BDs/HD-DVDs
Duration : 40 min 22 s
Bit rate : 49.2 kb/s
Count of elements : 1500
Stream size : 14.2 MiB (0%)
Title : SDH
Language : English
Default : No
Forced : No

Text #2
ID : 4
Format : PGS
Codec ID : S_HDMV/PGS
Codec ID/Info : Picture based subtitle format used on BDs/HD-DVDs
Duration : 40 min 56 s
Bit rate : 43.9 kb/s
Count of elements : 1132
Stream size : 12.8 MiB (0%)
Language : German
Default : No
Forced : No

Menu
00:00:00.000 : en:Chapter 1
00:04:40.489 : en:Chapter 2
00:19:45.601 : en:Chapter 3
00:32:41.793 : en:Chapter 4





Chicago Fire S06E20


Chicago Fire S06E20


Chicago Fire S06E20


Chicago Fire S06E20


Chicago Fire S06E20

All episodes