Featured TV Shows


Chicago Fire S06E23

Posted By: Tavaz
1080p (FullHD) / WEB-DL IMDb
Chicago Fire S06E23

Chicago Fire S06E23
WEB-DL | MKV | 1920x1080 | H264 @ 10081 kbps | E-AC-3 @ 640 kbps | 42 min 0 s | 3.21 GiB
Genre: Drama

An edge-of-your-seat view into the lives of everyday heroes committed to one of America's noblest professions. For the firefighters, rescue squad and paramedics of Chicago Firehouse 51, no occupation is more stressful or dangerous, yet so rewarding and exhilarating. These courageous men and women are among the elite who forge headfirst into danger when everyone else is running the other way and whose actions make the difference between life and death.

f23af744a63040a5b52f4a8beb3060b5.mkv (3.2 GB)



General
Unique ID : 130591347028339378824607602897164216427 (0x623EFA83B162C7190073201B7718A86B)
Complete name : ./f23af744a63040a5b52f4a8beb3060b5.mkv
Format : Matroska
Format version : Version 4 / Version 2
File size : 3.21 GiB
Duration : 42 min 0 s
Overall bit rate mode : Variable
Overall bit rate : 10.9 Mb/s
Writing application : Lavf57.82.100
Writing library : Lavf57.82.100
ErrorDetectionType : Per level 1

Video
ID : 1
Format : AVC
Format/Info : Advanced Video Codec
Format profile : High@L4
Format settings : CABAC / 4 Ref Frames
Format settings, CABAC : Yes
Format settings, RefFrames : 4 frames
Codec ID : V_MPEG4/ISO/AVC
Duration : 42 min 0 s
Bit rate mode : Variable
Bit rate : 10.1 Mb/s
Maximum bit rate : 15.0 Mb/s
Width : 1 920 pixels
Height : 1 080 pixels
Display aspect ratio : 16:9
Frame rate mode : Constant
Frame rate : 23.976 (24000/1001) FPS
Color space : YUV
Chroma subsampling : 4:2:0
Bit depth : 8 bits
Scan type : Progressive
Bits/(Pixel*Frame) : 0.203
Stream size : 2.96 GiB (92%)
Default : Yes
Forced : No
Color range : Limited
Color primaries : BT.709
Transfer characteristics : BT.709
Matrix coefficients : BT.709

Audio
ID : 2
Format : E-AC-3
Format/Info : Enhanced Audio Coding 3
Format settings, Endianness : Big
Codec ID : A_EAC3
Duration : 42 min 0 s
Bit rate mode : Constant
Bit rate : 640 kb/s
Channel(s) : 6 channels
Channel positions : Front: L C R, Side: L R, LFE
Sampling rate : 48.0 kHz
Frame rate : 187.500 FPS (256 SPF)
Bit depth : 32 bits
Compression mode : Lossy
Stream size : 192 MiB (6%)
Service kind : Complete Main
Default : Yes
Forced : No

Text
ID : 3
Format : ASS
Codec ID : S_TEXT/ASS
Codec ID/Info : Advanced Sub Station Alpha
Duration : 41 min 33 s
Compression mode : Lossless
Writing library : Lavc57.106.101 ssa
Default : No
Forced : No





Chicago Fire S06E23


Chicago Fire S06E23


Chicago Fire S06E23


Chicago Fire S06E23


Chicago Fire S06E23

All episodes