Featured TV Shows


Chicago Fire S07E01

Posted By: Tavaz
1080p (FullHD) / HDTV IMDb
Chicago Fire S07E01

Chicago Fire S07E01
HDTV | MKV | 1920x1078 | English | H264 @ 6401 kbps | AC-3 @ 384 kbps | 40 min 14 s | 1.91 GiB
Genre: Drama

An edge-of-your-seat view into the lives of everyday heroes committed to one of America's noblest professions. For the firefighters, rescue squad and paramedics of Chicago Firehouse 51, no occupation is more stressful or dangerous, yet so rewarding and exhilarating. These courageous men and women are among the elite who forge headfirst into danger when everyone else is running the other way and whose actions make the difference between life and death.

Chicago.Fire.S07E01.1080p.HDTV.x264-PLUTONiUM.mkv (1.9 GB)



General
Unique ID : 40007251509232243044332067151293136870 (0x1E191DCA4171C48A106363E999773FE6)
Complete name : ./Chicago.Fire.S07E01.1080p.HDTV.x264-PLUTONiUM.mkv
Format : Matroska
Format version : Version 4 / Version 2
File size : 1.91 GiB
Duration : 40 min 14 s
Overall bit rate : 6 787 kb/s
Encoded date : UTC 2018-09-27 04:38:24
Writing application : mkvmerge v26.0.0 ('In The Game') 64-bit
Writing library : libebml v1.3.6 + libmatroska v1.4.9

Video
ID : 1
Format : AVC
Format/Info : Advanced Video Codec
Format profile : High@L4.2
Format settings : CABAC / 4 Ref Frames
Format settings, CABAC : Yes
Format settings, RefFrames : 4 frames
Codec ID : V_MPEG4/ISO/AVC
Duration : 40 min 14 s
Bit rate : 6 401 kb/s
Width : 1 920 pixels
Height : 1 078 pixels
Display aspect ratio : 16:9
Frame rate mode : Constant
Frame rate : 23.976 (24000/1001) FPS
Color space : YUV
Chroma subsampling : 4:2:0
Bit depth : 8 bits
Scan type : Progressive
Bits/(Pixel*Frame) : 0.129
Stream size : 1.80 GiB (94%)
Writing library : x264 core 155 r2901 7d0ff22
Encoding settings : cabac=1 / ref=4 / deblock=1:0:0 / analyse=0x3:0x113 / me=umh / subme=8 / psy=1 / psy_rd=1.00:0.00 / mixed_ref=1 / me_range=16 / chroma_me=1 / trellis=2 / 8x8dct=1 / cqm=0 / deadzone=21,11 / fast_pskip=1 / chroma_qp_offset=-2 / threads=18 / lookahead_threads=4 / sliced_threads=0 / nr=0 / decimate=1 / interlaced=0 / bluray_compat=0 / constrained_intra=0 / bframes=5 / b_pyramid=2 / b_adapt=2 / b_bias=0 / direct=3 / weightb=1 / open_gop=0 / weightp=2 / keyint=250 / keyint_min=23 / scenecut=40 / intra_refresh=0 / rc_lookahead=50 / rc=crf / mbtree=1 / crf=18.0 / qcomp=0.60 / qpmin=0 / qpmax=69 / qpstep=4 / ip_ratio=1.40 / aq=1:1.00
Default : Yes
Forced : No
Color range : Limited
Matrix coefficients : BT.709

Audio
ID : 2
Format : AC-3
Format/Info : Audio Coding 3
Format settings, Endianness : Big
Codec ID : A_AC3
Duration : 40 min 14 s
Bit rate mode : Constant
Bit rate : 384 kb/s
Channel(s) : 6 channels
Channel positions : Front: L C R, Side: L R, LFE
Sampling rate : 48.0 kHz
Frame rate : 31.250 FPS (1536 SPF)
Bit depth : 16 bits
Compression mode : Lossy
Stream size : 111 MiB (6%)
Language : English
Service kind : Complete Main
Default : Yes
Forced : No





Chicago Fire S07E01


Chicago Fire S07E01


Chicago Fire S07E01


Chicago Fire S07E01


Chicago Fire S07E01

All episodes