Featured TV Shows


Chicago Fire S07E06

Posted By: Tavaz
1080p (FullHD) / WEBRip IMDb
Chicago Fire S07E06

Chicago Fire S07E06
WEBRip | MKV | 1920x1080 | English | H264 @ 5801 kbps | AAC @ 64 kbps | 41 min 44 s | 1.71 GiB
Genre: Drama

An edge-of-your-seat view into the lives of everyday heroes committed to one of America's noblest professions. For the firefighters, rescue squad and paramedics of Chicago Firehouse 51, no occupation is more stressful or dangerous, yet so rewarding and exhilarating. These courageous men and women are among the elite who forge headfirst into danger when everyone else is running the other way and whose actions make the difference between life and death.

21ad9ab14a9e433f8b0938d5bf1920a9.mkv (1.7 GB)



General
Unique ID : 339050850436939828781268194902998097717 (0xFF12D18CAA8CDBC3F45DB12EC8599F35)
Complete name : ./21ad9ab14a9e433f8b0938d5bf1920a9.mkv
Format : Matroska
Format version : Version 4 / Version 2
File size : 1.71 GiB
Duration : 41 min 44 s
Overall bit rate : 5 867 kb/s
Encoded date : UTC 2018-11-01 09:03:22
Writing application : mkvmerge v26.0.0 ('In The Game') 64-bit
Writing library : libebml v1.3.6 + libmatroska v1.4.9

Video
ID : 1
Format : AVC
Format/Info : Advanced Video Codec
Format profile : High@L4
Format settings : CABAC / 4 Ref Frames
Format settings, CABAC : Yes
Format settings, RefFrames : 4 frames
Codec ID : V_MPEG4/ISO/AVC
Duration : 41 min 44 s
Bit rate : 5 802 kb/s
Width : 1 920 pixels
Height : 1 080 pixels
Display aspect ratio : 16:9
Frame rate mode : Constant
Frame rate : 23.976 (24000/1001) FPS
Color space : YUV
Chroma subsampling : 4:2:0
Bit depth : 8 bits
Scan type : Progressive
Bits/(Pixel*Frame) : 0.117
Stream size : 1.69 GiB (99%)
Language : English
Default : Yes
Forced : No

Audio
ID : 2
Format : AAC
Format/Info : Advanced Audio Codec
Format profile : HE-AAC / LC
Format settings : Explicit
Codec ID : A_AAC-2
Duration : 41 min 44 s
Bit rate : 64.0 kb/s
Channel(s) : 2 channels
Channel positions : Front: L R
Sampling rate : 48.0 kHz / 24.0 kHz
Frame rate : 23.438 FPS (1024 SPF)
Compression mode : Lossy
Stream size : 19.1 MiB (1%)
Language : English
Default : Yes
Forced : No





Chicago Fire S07E06


Chicago Fire S07E06


Chicago Fire S07E06


Chicago Fire S07E06


Chicago Fire S07E06

All episodes