Featured TV Shows


Chicago Fire S07E11

Posted By: Tavaz
1080p (FullHD) / WEBRip IMDb
Chicago Fire S07E11

Chicago Fire S07E11
WEBRip | MKV | 1920x1080 | Italian / English | H264 @ 5200 kbps | AAC @ 63 kbps | 40 min 1 s | 1.48 GiB
Subtitles: English, Italian
Genre: Dramma


Nessun lavoro è più stressante e pericoloso, ma al tempo stesso stimolante e coinvolgente di quello dei vigili del fuoco, soccorritori e paramedici della squadra di Chicago Firehouse 51. La squadra è formata da uomini e donne di eccezionale coraggio, pronti a buttarsi a capofitto nelle situazioni di estremo pericolo, quando tutti gli altri se la danno a gambe. Ma l'enorme responsabilità del loro lavoro comporta anche un pesante tributo a livello personale. Certo da una parte sono compensati da un'eccellente reputazione che fa crescere notevolmente il loro ego, ma dall'altra sono soggetti a una fortissima pressione quando, in una manciata di secondi si trovano a dover prendere decisioni da cui dipende la vita o la morte delle persone che stanno soccorrendo. Inoltre ogni volta si rischia di entrare in conflitto con le decisioni degli altri membri della squadra, con cui occorre operare in perfetta sintonia. Ogni volta che un membro della squadra incappa in un evento dalla tragica conclusione, viene sovrastato da un enorme senso di colpa e rimorso, difficile da elaborare e rimuovere. Quando poi è il momento di agire per soccorrere un compagno, ogni membro della squadra deve riuscire a mettere da parte la propria diversità di vedute, rischiando la propria vita per salvare senza alcuna esitazione quella altrui…

chicago.fire.s07e11.italian.multi.1080p.web.x264-hwd.sample.mkv (38.8 MB)
Chicago.Fire.S07E11.iTALiAN.MULTi.1080p.WEB.x264-HWD.mkv (1.5 GB)



General
Unique ID : 3685112942039372526858676570501069591 (0x2C5BA18803337D7D0D7303340A2BB17)
Complete name : ./Chicago.Fire.S07E11.iTALiAN.MULTi.1080p.WEB.x264-HWD.mkv
Format : Matroska
Format version : Version 4 / Version 2
File size : 1.48 GiB
Duration : 40 min 1 s
Overall bit rate : 5 296 kb/s
Encoded date : UTC 2019-05-07 19:18:15
Writing application : mkvmerge v28.2.0 ('The Awakening') 64-bit
Writing library : libebml v1.3.6 + libmatroska v1.4.9

Video
ID : 1
Format : AVC
Format/Info : Advanced Video Codec
Format profile : High@L4
Format settings : CABAC / 4 Ref Frames
Format settings, CABAC : Yes
Format settings, RefFrames : 4 frames
Codec ID : V_MPEG4/ISO/AVC
Duration : 40 min 1 s
Bit rate : 5 200 kb/s
Width : 1 920 pixels
Height : 1 080 pixels
Display aspect ratio : 16:9
Frame rate mode : Constant
Frame rate : 25.000 FPS
Color space : YUV
Chroma subsampling : 4:2:0
Bit depth : 8 bits
Scan type : Progressive
Bits/(Pixel*Frame) : 0.100
Stream size : 1.44 GiB (98%)
Writing library : x264 core 142
Encoding settings : cabac=1 / ref=3 / deblock=1:0:0 / analyse=0x3:0x113 / me=hex / subme=7 / psy=1 / psy_rd=1.00:0.00 / mixed_ref=1 / me_range=16 / chroma_me=1 / trellis=1 / 8x8dct=1 / cqm=0 / deadzone=21,11 / fast_pskip=1 / chroma_qp_offset=-2 / threads=4 / lookahead_threads=1 / sliced_threads=0 / nr=0 / decimate=1 / interlaced=0 / bluray_compat=0 / constrained_intra=0 / bframes=3 / b_pyramid=2 / b_adapt=1 / b_bias=0 / direct=1 / weightb=1 / open_gop=0 / weightp=2 / keyint=25 / keyint_min=2 / scenecut=0 / intra_refresh=0 / rc_lookahead=25 / rc=abr / mbtree=1 / bitrate=5200 / ratetol=1.0 / qcomp=0.60 / qpmin=0 / qpmax=69 / qpstep=4 / vbv_maxrate=5720 / vbv_bufsize=5200 / nal_hrd=none / filler=0 / ip_ratio=1.40 / aq=1:1.00
Default : Yes
Forced : No

Audio #1
ID : 2
Format : AAC
Format/Info : Advanced Audio Codec
Format profile : HE-AAC / LC
Format settings : Explicit
Codec ID : A_AAC-2
Duration : 40 min 1 s
Bit rate : 64.0 kb/s
Channel(s) : 2 channels
Channel positions : Front: L R
Sampling rate : 48.0 kHz / 24.0 kHz
Frame rate : 23.438 FPS (1024 SPF)
Compression mode : Lossy
Stream size : 18.3 MiB (1%)
Title : Italian
Language : Italian
Default : Yes
Forced : No

Audio #2
ID : 3
Format : AAC
Format/Info : Advanced Audio Codec
Format profile : HE-AAC / LC
Format settings : Explicit
Codec ID : A_AAC-2
Duration : 40 min 1 s
Bit rate : 64.0 kb/s
Channel(s) : 2 channels
Channel positions : Front: L R
Sampling rate : 48.0 kHz / 24.0 kHz
Frame rate : 23.438 FPS (1024 SPF)
Compression mode : Lossy
Stream size : 18.3 MiB (1%)
Title : English
Language : English
Default : No
Forced : No

Text #1
ID : 4
Format : UTF-8
Codec ID : S_TEXT/UTF8
Codec ID/Info : UTF-8 Plain Text
Duration : 39 min 14 s
Bit rate : 79 b/s
Count of elements : 738
Stream size : 23.0 KiB (0%)
Title : Italian
Language : Italian
Default : No
Forced : No

Text #2
ID : 5
Format : UTF-8
Codec ID : S_TEXT/UTF8
Codec ID/Info : UTF-8 Plain Text
Duration : 38 min 56 s
Bit rate : 83 b/s
Count of elements : 744
Stream size : 23.8 KiB (0%)
Title : English
Language : English
Default : No
Forced : No





Chicago Fire S07E11


Chicago Fire S07E11


Chicago Fire S07E11


Chicago Fire S07E11


Chicago Fire S07E11

All episodes