Featured TV Shows


Chicago Fire S07E14

Posted By: Tavaz
1080p (FullHD) / WEB-DL IMDb
Chicago Fire S07E14

Chicago Fire S07E14
WEB-DL | MKV | 1920x1080 | English | H264 @ 10771 kbps | E-AC-3 @ 640 kbps | 40 min 13 s | 3.21 GiB
Subtitles: English
Genre: Dramma

Nessun lavoro è più stressante e pericoloso, ma al tempo stesso stimolante e coinvolgente di quello dei vigili del fuoco, soccorritori e paramedici della squadra di Chicago Firehouse 51. La squadra è formata da uomini e donne di eccezionale coraggio, pronti a buttarsi a capofitto nelle situazioni di estremo pericolo, quando tutti gli altri se la danno a gambe. Ma l'enorme responsabilità del loro lavoro comporta anche un pesante tributo a livello personale. Certo da una parte sono compensati da un'eccellente reputazione che fa crescere notevolmente il loro ego, ma dall'altra sono soggetti a una fortissima pressione quando, in una manciata di secondi si trovano a dover prendere decisioni da cui dipende la vita o la morte delle persone che stanno soccorrendo. Inoltre ogni volta si rischia di entrare in conflitto con le decisioni degli altri membri della squadra, con cui occorre operare in perfetta sintonia. Ogni volta che un membro della squadra incappa in un evento dalla tragica conclusione, viene sovrastato da un enorme senso di colpa e rimorso, difficile da elaborare e rimuovere. Quando poi è il momento di agire per soccorrere un compagno, ogni membro della squadra deve riuscire a mettere da parte la propria diversità di vedute, rischiando la propria vita per salvare senza alcuna esitazione quella altrui…

194ac2cc962c422a83912f1507d094a0.mkv (3.2 GB)



General
Unique ID : 253932706675859592718088221819920483820 (0xBF09A90DA819D67F21AB37E8DD4485EC)
Complete name : ./194ac2cc962c422a83912f1507d094a0.mkv
Format : Matroska
Format version : Version 4 / Version 2
File size : 3.21 GiB
Duration : 40 min 13 s
Overall bit rate : 11.4 Mb/s
Encoded date : UTC 2019-02-14 14:35:49
Writing application : mkvmerge v30.1.0 ('Forever And More') 64-bit
Writing library : libebml v1.3.6 + libmatroska v1.4.9

Video
ID : 1
Format : AVC
Format/Info : Advanced Video Codec
Format profile : High@L4
Format settings : CABAC / 4 Ref Frames
Format settings, CABAC : Yes
Format settings, RefFrames : 4 frames
Codec ID : V_MPEG4/ISO/AVC
Duration : 40 min 13 s
Bit rate : 10.8 Mb/s
Width : 1 920 pixels
Height : 1 080 pixels
Display aspect ratio : 16:9
Frame rate mode : Constant
Frame rate : 23.976 (24000/1001) FPS
Color space : YUV
Chroma subsampling : 4:2:0
Bit depth : 8 bits
Scan type : Progressive
Bits/(Pixel*Frame) : 0.217
Stream size : 3.03 GiB (94%)
Default : Yes
Forced : No
Color range : Limited
Color primaries : BT.709
Transfer characteristics : BT.709
Matrix coefficients : BT.709

Audio
ID : 2
Format : E-AC-3
Format/Info : Enhanced Audio Coding 3
Format settings, Endianness : Big
Codec ID : A_EAC3
Duration : 40 min 13 s
Bit rate mode : Constant
Bit rate : 640 kb/s
Channel(s) : 6 channels
Channel positions : Front: L C R, Side: L R, LFE
Sampling rate : 48.0 kHz
Frame rate : 187.500 FPS (256 SPF)
Compression mode : Lossy
Stream size : 184 MiB (6%)
Language : English
Service kind : Complete Main
Default : Yes
Forced : No

Text #1
ID : 3
Format : UTF-8
Codec ID : S_TEXT/UTF8
Codec ID/Info : UTF-8 Plain Text
Duration : 39 min 11 s
Bit rate : 73 b/s
Count of elements : 743
Stream size : 21.0 KiB (0%)
Language : English
Default : No
Forced : No

Text #2
ID : 4
Format : UTF-8
Codec ID : S_TEXT/UTF8
Codec ID/Info : UTF-8 Plain Text
Duration : 40 min 5 s
Bit rate : 80 b/s
Count of elements : 989
Stream size : 23.7 KiB (0%)
Title : SDH
Language : English
Default : No
Forced : No





Chicago Fire S07E14


Chicago Fire S07E14


Chicago Fire S07E14


Chicago Fire S07E14


Chicago Fire S07E14

All episodes