Featured TV Shows


Chicago Fire S07E19

Posted By: Tavaz
720p (HD) / HDTV IMDb
Chicago Fire S07E19

Chicago Fire S07E19
HDTV | MKV | 1280x720 | English | H264 @ 2625 kbps | AC-3 @ 384 kbps | 39 min 35 s | 853 MiB
Subtitles: English
Genre: Drama


An edge-of-your-seat view into the lives of everyday heroes committed to one of America's noblest professions. For the firefighters, rescue squad and paramedics of Chicago Firehouse 51, no occupation is more stressful or dangerous, yet so rewarding and exhilarating. These courageous men and women are among the elite who forge headfirst into danger when everyone else is running the other way and whose actions make the difference between life and death.

chicago.fire.s07e19.720p.hdtv.x264-lucidtv.mkv (852.9 MB)
chicago.fire.s07e19.720p.hdtv.x264-lucidtv-sample.mkv (19.5 MB)



General
Unique ID : 225712596640092894883385877639139479424 (0xA9CEAA34E2767F3DB8C6143BC458CF80)
Complete name : ./chicago.fire.s07e19.720p.hdtv.x264-lucidtv.mkv
Format : Matroska
Format version : Version 4 / Version 2
File size : 853 MiB
Duration : 39 min 35 s
Overall bit rate : 3 012 kb/s
Movie name : Chicago.Fire.S07E19.720p.HDTV.x264-LucidTV
Encoded date : UTC 2019-04-25 03:26:20
Writing application : mkvmerge v32.0.0 ('Astral Progressions') 64-bit
Writing library : libebml v1.3.7 + libmatroska v1.5.0

Video
ID : 1
Format : AVC
Format/Info : Advanced Video Codec
Format profile : High@L4.1
Format settings : CABAC / 5 Ref Frames
Format settings, CABAC : Yes
Format settings, RefFrames : 5 frames
Codec ID : V_MPEG4/ISO/AVC
Duration : 39 min 35 s
Bit rate : 2 626 kb/s
Width : 1 280 pixels
Height : 720 pixels
Display aspect ratio : 16:9
Frame rate mode : Constant
Frame rate : 23.976 (23976/1000) FPS
Original frame rate : 23.976 (24000/1001) FPS
Color space : YUV
Chroma subsampling : 4:2:0
Bit depth : 8 bits
Scan type : Progressive
Bits/(Pixel*Frame) : 0.119
Stream size : 744 MiB (87%)
Writing library : x264 core 157 r2969 d4099dd
Encoding settings : cabac=1 / ref=5 / deblock=1:0:0 / analyse=0x3:0x113 / me=hex / subme=8 / psy=1 / psy_rd=1.00:0.00 / mixed_ref=1 / me_range=16 / chroma_me=1 / trellis=2 / 8x8dct=1 / cqm=0 / deadzone=21,11 / fast_pskip=1 / chroma_qp_offset=-2 / threads=22 / lookahead_threads=3 / sliced_threads=0 / nr=0 / decimate=1 / interlaced=0 / bluray_compat=0 / constrained_intra=0 / bframes=3 / b_pyramid=2 / b_adapt=1 / b_bias=0 / direct=3 / weightb=1 / open_gop=0 / weightp=2 / keyint=250 / keyint_min=23 / scenecut=40 / intra_refresh=0 / rc_lookahead=50 / rc=crf / mbtree=1 / crf=18.0 / qcomp=0.60 / qpmin=0 / qpmax=69 / qpstep=4 / ip_ratio=1.40 / aq=1:1.00
Language : English
Default : Yes
Forced : No

Audio
ID : 2
Format : AC-3
Format/Info : Audio Coding 3
Format settings, Endianness : Big
Codec ID : A_AC3
Duration : 39 min 35 s
Bit rate mode : Constant
Bit rate : 384 kb/s
Channel(s) : 6 channels
Channel positions : Front: L C R, Side: L R, LFE
Sampling rate : 48.0 kHz
Frame rate : 31.250 FPS (1536 SPF)
Bit depth : 16 bits
Compression mode : Lossy
Stream size : 109 MiB (13%)
Language : English
Service kind : Complete Main
Default : Yes
Forced : No

Text
ID : 3
Format : UTF-8
Codec ID : S_TEXT/UTF8
Codec ID/Info : UTF-8 Plain Text
Duration : 39 min 27 s
Bit rate : 122 b/s
Count of elements : 937
Stream size : 35.4 KiB (0%)
Language : English
Default : No
Forced : No





Chicago Fire S07E19


Chicago Fire 			  		  		  		 	 	  	 			   		   	  		 		   			     	 			   		   	  		   	  		   	  	 			   		   	  			  	  		   				 S07E19


Chicago Fire S07E19


Chicago Fire S07E19


Chicago Fire S07E19

All episodes