Featured TV Shows


Chicago Fire S07E22

Posted By: Tavaz
1080p (FullHD) / WEBRip IMDb
Chicago Fire S07E22

Chicago Fire S07E22
WEBRip | MKV | 1920x1080 | English | H264 @ 9446 kbps | E-AC-3 @ 640 kbps | 41 min 54 s | 2.95 GiB
Subtitles: English
Genre: Drama


An edge-of-your-seat view into the lives of everyday heroes committed to one of America's noblest professions. For the firefighters, rescue squad and paramedics of Chicago Firehouse 51, no occupation is more stressful or dangerous, yet so rewarding and exhilarating. These courageous men and women are among the elite who forge headfirst into danger when everyone else is running the other way and whose actions make the difference between life and death.

bbe2ec2209a74148861e285b810ad199.mkv (3.0 GB)



General
Unique ID : 216044016890054311622413307798602275611 (0xA288906BB41BC853FE9028DD75EE5B1B)
Complete name : ./bbe2ec2209a74148861e285b810ad199.mkv
Format : Matroska
Format version : Version 4 / Version 2
File size : 2.95 GiB
Duration : 41 min 54 s
Overall bit rate : 10.1 Mb/s
Encoded date : UTC 2019-05-23 07:02:35
Writing application : mkvmerge v33.1.0 ('Primrose') 64-bit
Writing library : libebml v1.3.7 + libmatroska v1.5.0

Video
ID : 1
Format : AVC
Format/Info : Advanced Video Codec
Format profile : High@L4
Format settings : CABAC / 4 Ref Frames
Format settings, CABAC : Yes
Format settings, RefFrames : 4 frames
Codec ID : V_MPEG4/ISO/AVC
Duration : 41 min 54 s
Bit rate mode : Constant
Bit rate : 9 447 kb/s
Nominal bit rate : 10 000 kb/s
Width : 1 920 pixels
Height : 1 080 pixels
Display aspect ratio : 16:9
Frame rate mode : Constant
Frame rate : 23.976 (24000/1001) FPS
Color space : YUV
Chroma subsampling : 4:2:0
Bit depth : 8 bits
Scan type : Progressive
Bits/(Pixel*Frame) : 0.190
Stream size : 2.77 GiB (94%)
Language : English
Default : Yes
Forced : No
Color range : Limited
Color primaries : BT.709
Transfer characteristics : BT.709
Matrix coefficients : BT.709

Audio
ID : 2
Format : E-AC-3
Format/Info : Enhanced Audio Coding 3
Format settings, Endianness : Big
Codec ID : A_EAC3
Duration : 41 min 54 s
Bit rate mode : Constant
Bit rate : 640 kb/s
Channel(s) : 6 channels
Channel positions : Front: L C R, Side: L R, LFE
Sampling rate : 48.0 kHz
Frame rate : 187.500 FPS (256 SPF)
Compression mode : Lossy
Stream size : 192 MiB (6%)
Language : English
Service kind : Complete Main
Default : Yes
Forced : No

Text
ID : 3
Format : UTF-8
Codec ID : S_TEXT/UTF8
Codec ID/Info : UTF-8 Plain Text
Duration : 41 min 45 s
Bit rate : 75 b/s
Count of elements : 919
Stream size : 23.1 KiB (0%)
Title : English
Language : English
Default : No
Forced : No





Chicago Fire S07E22


Chicago Fire S07E22


Chicago Fire S07E22


Chicago Fire S07E22


Chicago Fire S07E22

All episodes