Featured TV Shows


Chicago Med S03E13

Posted By: Tavaz
SD / HDTV IMDb
Chicago Med S03E13

Chicago Med S03E13
HDTV | MKV | 720x404 | German | H264 @ 704 kbps | AC-3 @ 192 kbps | 40 min 52 s | 268 MiB
Genre: Drama

Nach „Chicago PD“ und „Chicago Fire“ schickt Serienerfinder und -produzent Dick Wolf mit „Chicago Med“ eine dritte Drama-Serie ins Rennen, die in der Metropole am Südwestufer des Michigansees angesiedelt ist. Damit wandelt die Serie auf den Spuren des langjährigen NBC-Hits „Emergency Room“, dessen Protagonisten ebenfalls die kleinen und großen Krankheiten der Bewohner Chicagos behandeln. Zu den dramatischen Fällen im OP, den gestressten Ärzten und deren privaten Beziehungsproblemen gesellen sich hier jedoch noch immer mal wieder bekannte Gesichter aus den Polizei- und Feuerwachen der oben genannten Wolfschen Schwesterserien.

ChiMe S03E13 German.mkv (267.6 MB)



General
Unique ID : 257577866104301193395633101797776951080 (0xC1C7B149EB419AF9E0AFE3463E140728)
Complete name : ./ChiMe S03E13 German/ChiMe S03E13 German.mkv
Format : Matroska
Format version : Version 4 / Version 2
File size : 268 MiB
Duration : 40 min 52 s
Overall bit rate : 915 kb/s
Encoded date : UTC 2018-06-12 07:01:01
Writing application : mkvmerge v23.0.0 ('The Bride Said No') 64-bit
Writing library : libebml v1.3.6 + libmatroska v1.4.9

Video
ID : 1
Format : AVC
Format/Info : Advanced Video Codec
Format profile : High@L3.1
Format settings : CABAC / 5 Ref Frames
Format settings, CABAC : Yes
Format settings, RefFrames : 5 frames
Codec ID : V_MPEG4/ISO/AVC
Duration : 40 min 53 s
Bit rate : 705 kb/s
Width : 720 pixels
Height : 404 pixels
Display aspect ratio : 16:9
Frame rate mode : Constant
Frame rate : 25.000 FPS
Color space : YUV
Chroma subsampling : 4:2:0
Bit depth : 8 bits
Scan type : Progressive
Bits/(Pixel*Frame) : 0.097
Stream size : 206 MiB (77%)
Writing library : x264 core 155 r2901 7d0ff22
Encoding settings : cabac=1 / ref=5 / deblock=1:-2:-2 / analyse=0x3:0x113 / me=umh / subme=8 / psy=1 / psy_rd=1.00:0.00 / mixed_ref=1 / me_range=16 / chroma_me=1 / trellis=2 / 8x8dct=1 / cqm=0 / deadzone=21,11 / fast_pskip=0 / chroma_qp_offset=-2 / threads=12 / lookahead_threads=2 / sliced_threads=0 / nr=0 / decimate=1 / interlaced=0 / bluray_compat=0 / constrained_intra=0 / bframes=3 / b_pyramid=2 / b_adapt=2 / b_bias=0 / direct=3 / weightb=1 / open_gop=0 / weightp=2 / keyint=250 / keyint_min=25 / scenecut=40 / intra_refresh=0 / rc_lookahead=50 / rc=crf / mbtree=1 / crf=19.0 / qcomp=0.60 / qpmin=0 / qpmax=69 / qpstep=4 / ip_ratio=1.40 / aq=1:0.80
Language : English
Default : Yes
Forced : No

Audio
ID : 2
Format : AC-3
Format/Info : Audio Coding 3
Format settings, Endianness : Big
Codec ID : A_AC3
Duration : 40 min 52 s
Bit rate mode : Constant
Bit rate : 192 kb/s
Channel(s) : 2 channels
Channel positions : Front: L R
Sampling rate : 48.0 kHz
Frame rate : 31.250 FPS (1536 SPF)
Bit depth : 16 bits
Compression mode : Lossy
Stream size : 56.1 MiB (21%)
Language : German
Service kind : Complete Main
Default : Yes
Forced : No





Chicago Med S03E13


Chicago Med S03E13


Chicago Med S03E13


Chicago Med S03E13


Chicago Med S03E13

All episodes