Featured TV Shows


Chicago Med S03E13

Posted By: Tavaz
720p (HD) / HDTV IMDb
Chicago Med S03E13

Chicago Med S03E13
HDTV | MKV | 1280x720 | German | H264 @ 2225 kbps | AC-3 @ 384 kbps | 40 min 52 s | 779 MiB
Genre: Drama

Nach „Chicago PD“ und „Chicago Fire“ schickt Serienerfinder und -produzent Dick Wolf mit „Chicago Med“ eine dritte Drama-Serie ins Rennen, die in der Metropole am Südwestufer des Michigansees angesiedelt ist. Damit wandelt die Serie auf den Spuren des langjährigen NBC-Hits „Emergency Room“, dessen Protagonisten ebenfalls die kleinen und großen Krankheiten der Bewohner Chicagos behandeln. Zu den dramatischen Fällen im OP, den gestressten Ärzten und deren privaten Beziehungsproblemen gesellen sich hier jedoch noch immer mal wieder bekannte Gesichter aus den Polizei- und Feuerwachen der oben genannten Wolfschen Schwesterserien.

Chicago.Med.S03E13.GERMAN.720p.HDTV.x264-ACED.mkv (778.6 MB)
chicago.med.s03e13.german.720p.hdtv.x264-aced.sample.mkv (23.7 MB)



General
Unique ID : 279204828269088179540775778878532904184 (0xD20CE4D9207B420DEDA79CD5800464F8)
Complete name : ./Chicago.Med.S03E13.GERMAN.720p.HDTV.x264-ACED.mkv
Format : Matroska
Format version : Version 4 / Version 2
File size : 779 MiB
Duration : 40 min 52 s
Overall bit rate : 2 663 kb/s
Encoded date : UTC 2018-06-12 07:01:19
Writing application : mkvmerge v23.0.0 ('The Bride Said No') 64-bit
Writing library : libebml v1.3.6 + libmatroska v1.4.9

Video
ID : 1
Format : AVC
Format/Info : Advanced Video Codec
Format profile : High@L4.1
Format settings : CABAC / 5 Ref Frames
Format settings, CABAC : Yes
Format settings, RefFrames : 5 frames
Codec ID : V_MPEG4/ISO/AVC
Duration : 40 min 53 s
Bit rate : 2 226 kb/s
Width : 1 280 pixels
Height : 720 pixels
Display aspect ratio : 16:9
Frame rate mode : Constant
Frame rate : 25.000 FPS
Color space : YUV
Chroma subsampling : 4:2:0
Bit depth : 8 bits
Scan type : Progressive
Bits/(Pixel*Frame) : 0.097
Stream size : 651 MiB (84%)
Writing library : x264 core 155 r2901 7d0ff22
Encoding settings : cabac=1 / ref=5 / deblock=1:-3:-3 / analyse=0x3:0x113 / me=umh / subme=9 / psy=1 / psy_rd=1.00:0.00 / mixed_ref=1 / me_range=16 / chroma_me=1 / trellis=2 / 8x8dct=1 / cqm=0 / deadzone=21,11 / fast_pskip=0 / chroma_qp_offset=-2 / threads=12 / lookahead_threads=1 / sliced_threads=0 / nr=0 / decimate=1 / interlaced=0 / bluray_compat=0 / constrained_intra=0 / bframes=3 / b_pyramid=2 / b_adapt=2 / b_bias=0 / direct=3 / weightb=1 / open_gop=0 / weightp=2 / keyint=250 / keyint_min=25 / scenecut=40 / intra_refresh=0 / rc_lookahead=50 / rc=crf / mbtree=1 / crf=18.0 / qcomp=0.60 / qpmin=0 / qpmax=69 / qpstep=4 / ip_ratio=1.40 / aq=1:1.00
Language : English
Default : Yes
Forced : No

Audio
ID : 2
Format : AC-3
Format/Info : Audio Coding 3
Format settings, Endianness : Big
Codec ID : A_AC3
Duration : 40 min 52 s
Bit rate mode : Constant
Bit rate : 384 kb/s
Channel(s) : 6 channels
Channel positions : Front: L C R, Side: L R, LFE
Sampling rate : 48.0 kHz
Frame rate : 31.250 FPS (1536 SPF)
Bit depth : 16 bits
Compression mode : Lossy
Stream size : 112 MiB (14%)
Language : German
Service kind : Complete Main
Default : Yes
Forced : No





Chicago Med S03E13


Chicago Med S03E13


Chicago Med S03E13


Chicago Med S03E13


Chicago Med S03E13

All episodes