Featured TV Shows


Chicago Med S03E15

Posted By: Tavaz
720p (HD) / HDTV IMDb
Chicago Med S03E15

Chicago Med S03E15
HDTV | MKV | 1280x720 | German | H264 @ 2028 kbps | AC-3 @ 384 kbps | 41 min 12 s | 725 MiB
Genre: Drama

Nach „Chicago PD“ und „Chicago Fire“ schickt Serienerfinder und -produzent Dick Wolf mit „Chicago Med“ eine dritte Drama-Serie ins Rennen, die in der Metropole am Südwestufer des Michigansees angesiedelt ist. Damit wandelt die Serie auf den Spuren des langjährigen NBC-Hits „Emergency Room“, dessen Protagonisten ebenfalls die kleinen und großen Krankheiten der Bewohner Chicagos behandeln. Zu den dramatischen Fällen im OP, den gestressten Ärzten und deren privaten Beziehungsproblemen gesellen sich hier jedoch noch immer mal wieder bekannte Gesichter aus den Polizei- und Feuerwachen der oben genannten Wolfschen Schwesterserien.

Chicago.Med.S03E15.GERMAN.720p.HDTV.x264-ACED.mkv (725.3 MB)
chicago.med.s03e15.german.720p.hdtv.x264-aced.sample.mkv (17.6 MB)



General
Unique ID : 218499533930279920434225102505367088888 (0xA4617AC20697FFC6B96E6A4593FCAEF8)
Complete name : ./Chicago.Med.S03E15.GERMAN.720p.HDTV.x264-ACED.mkv
Format : Matroska
Format version : Version 4 / Version 2
File size : 725 MiB
Duration : 41 min 12 s
Overall bit rate : 2 461 kb/s
Encoded date : UTC 2018-06-26 15:50:44
Writing application : mkvmerge v24.0.0 ('Beyond The Pale') 64-bit
Writing library : libebml v1.3.6 + libmatroska v1.4.9

Video
ID : 1
Format : AVC
Format/Info : Advanced Video Codec
Format profile : High@L4.1
Format settings : CABAC / 5 Ref Frames
Format settings, CABAC : Yes
Format settings, RefFrames : 5 frames
Codec ID : V_MPEG4/ISO/AVC
Duration : 41 min 12 s
Bit rate : 2 028 kb/s
Width : 1 280 pixels
Height : 720 pixels
Display aspect ratio : 16:9
Frame rate mode : Constant
Frame rate : 25.000 FPS
Color space : YUV
Chroma subsampling : 4:2:0
Bit depth : 8 bits
Scan type : Progressive
Bits/(Pixel*Frame) : 0.088
Stream size : 598 MiB (82%)
Writing library : x264 core 155 r2901 7d0ff22
Encoding settings : cabac=1 / ref=5 / deblock=1:-3:-3 / analyse=0x3:0x113 / me=umh / subme=9 / psy=1 / psy_rd=1.00:0.00 / mixed_ref=1 / me_range=16 / chroma_me=1 / trellis=2 / 8x8dct=1 / cqm=0 / deadzone=21,11 / fast_pskip=0 / chroma_qp_offset=-2 / threads=12 / lookahead_threads=1 / sliced_threads=0 / nr=0 / decimate=1 / interlaced=0 / bluray_compat=0 / constrained_intra=0 / bframes=3 / b_pyramid=2 / b_adapt=2 / b_bias=0 / direct=3 / weightb=1 / open_gop=0 / weightp=2 / keyint=250 / keyint_min=25 / scenecut=40 / intra_refresh=0 / rc_lookahead=50 / rc=crf / mbtree=1 / crf=18.0 / qcomp=0.60 / qpmin=0 / qpmax=69 / qpstep=4 / ip_ratio=1.40 / aq=1:1.00
Language : English
Default : Yes
Forced : No

Audio
ID : 2
Format : AC-3
Format/Info : Audio Coding 3
Format settings, Endianness : Big
Codec ID : A_AC3
Duration : 41 min 12 s
Bit rate mode : Constant
Bit rate : 384 kb/s
Channel(s) : 6 channels
Channel positions : Front: L C R, Side: L R, LFE
Sampling rate : 48.0 kHz
Frame rate : 31.250 FPS (1536 SPF)
Bit depth : 16 bits
Compression mode : Lossy
Stream size : 113 MiB (16%)
Language : German
Service kind : Complete Main
Default : Yes
Forced : No





Chicago Med S03E15


Chicago Med S03E15


Chicago Med S03E15


Chicago Med S03E15


Chicago Med S03E15

All episodes