Featured TV Shows


Chicago Med S04E06

Posted By: Tavaz
SD / HDTV IMDb
Chicago Med S04E06

Chicago Med S04E06
HDTV | MKV | 720x404 | German | H264 @ 700 kbps | AC-3 @ 192 kbps | 39 min 44 s | 254 MiB
Genre: Drama

Nach „Chicago PD“ und „Chicago Fire“ schickt Serienerfinder und -produzent Dick Wolf mit „Chicago Med“ eine dritte Drama-Serie ins Rennen, die in der Metropole am Südwestufer des Michigansees angesiedelt ist. Damit wandelt die Serie auf den Spuren des langjährigen NBC-Hits „Emergency Room“, dessen Protagonisten ebenfalls die kleinen und großen Krankheiten der Bewohner Chicagos behandeln. Zu den dramatischen Fällen im OP, den gestressten Ärzten und deren privaten Beziehungsproblemen gesellen sich hier jedoch noch immer mal wieder bekannte Gesichter aus den Polizei- und Feuerwachen der oben genannten Wolfschen Schwesterserien.

ChiMe S04E06 Nebelkerzen.mkv (254.3 MB)



General
Unique ID : 9730221390262037597470987638531180753 (0x751F8F41011865A0EFA249B079448D1)
Complete name : ./ChiMe S04E06 German/ChiMe S04E06 Nebelkerzen.mkv
Format : Matroska
Format version : Version 4 / Version 2
File size : 254 MiB
Duration : 39 min 44 s
Overall bit rate : 894 kb/s
Encoded date : UTC 2019-04-08 20:33:20
Writing application : mkvmerge v31.0.0 ('Dolores In A Shoestand') 64-bit
Writing library : libebml v1.3.6 + libmatroska v1.4.9

Video
ID : 1
Format : AVC
Format/Info : Advanced Video Codec
Format profile : High@L3.1
Format settings : CABAC / 5 Ref Frames
Format settings, CABAC : Yes
Format settings, RefFrames : 5 frames
Codec ID : V_MPEG4/ISO/AVC
Duration : 39 min 44 s
Bit rate : 701 kb/s
Width : 720 pixels
Height : 404 pixels
Display aspect ratio : 16:9
Frame rate mode : Constant
Frame rate : 25.000 FPS
Color space : YUV
Chroma subsampling : 4:2:0
Bit depth : 8 bits
Scan type : Progressive
Bits/(Pixel*Frame) : 0.096
Stream size : 199 MiB (78%)
Writing library : x264 core 157 r2969 d4099dd
Encoding settings : cabac=1 / ref=5 / deblock=1:-2:-2 / analyse=0x3:0x113 / me=umh / subme=8 / psy=1 / psy_rd=1.00:0.00 / mixed_ref=1 / me_range=16 / chroma_me=1 / trellis=2 / 8x8dct=1 / cqm=0 / deadzone=21,11 / fast_pskip=1 / chroma_qp_offset=-2 / threads=13 / lookahead_threads=2 / sliced_threads=0 / nr=0 / decimate=1 / interlaced=0 / bluray_compat=0 / constrained_intra=0 / bframes=3 / b_pyramid=2 / b_adapt=1 / b_bias=0 / direct=3 / weightb=1 / open_gop=0 / weightp=2 / keyint=250 / keyint_min=25 / scenecut=40 / intra_refresh=0 / rc_lookahead=50 / rc=crf / mbtree=1 / crf=19.0 / qcomp=0.60 / qpmin=0 / qpmax=69 / qpstep=4 / ip_ratio=1.40 / aq=1:1.00
Default : Yes
Forced : No

Audio
ID : 2
Format : AC-3
Format/Info : Audio Coding 3
Format settings, Endianness : Big
Codec ID : A_AC3
Duration : 39 min 44 s
Bit rate mode : Constant
Bit rate : 192 kb/s
Channel(s) : 2 channels
Channel positions : Front: L R
Sampling rate : 48.0 kHz
Frame rate : 31.250 FPS (1536 SPF)
Bit depth : 16 bits
Compression mode : Lossy
Stream size : 54.6 MiB (21%)
Language : German
Service kind : Complete Main
Default : Yes
Forced : No





Chicago Med S04E06


Chicago Med S04E06


Chicago Med S04E06


Chicago Med S04E06


Chicago Med S04E06

All episodes