Chicago Med S04E21

Posted By: Tavaz
720p (HD) / HDTV IMDb
Chicago Med S04E21

Chicago Med S04E21
HDTV | MKV | 1280x720 | English | H264 @ 2224 kbps | AC-3 @ 384 kbps | 40 min 28 s | 771 MiB
Genre: Drama


An emotional thrill ride through the day-to-day chaos of the city's most explosive hospital and the courageous team of doctors who hold it together. They will tackle unique new cases inspired by topical events, forging fiery relationships in the pulse-pounding pandemonium of the emergency room.

Chicago.Med.S04E21.720p.HDTV.x264-AVS.mkv (770.6 MB)



General
Unique ID : 215263647227603925076847941531404872625 (0xA1F24539CF7045B8AEDE721956802BB1)
Complete name : ./Chicago.Med.S04E21.720p.HDTV.x264-AVS.mkv
Format : Matroska
Format version : Version 4 / Version 2
File size : 771 MiB
Duration : 40 min 28 s
Overall bit rate : 2 662 kb/s
Encoded date : UTC 2019-05-16 00:03:24
Writing application : FastLE v3.0.0 - AVS
Writing library : libx264 + libebml + libmatroska + libfastrar

Video
ID : 1
Format : AVC
Format/Info : Advanced Video Codec
Format profile : High@L4.1
Format settings : CABAC / 5 Ref Frames
Format settings, CABAC : Yes
Format settings, RefFrames : 5 frames
Codec ID : V_MPEG4/ISO/AVC
Duration : 40 min 28 s
Bit rate : 2 225 kb/s
Width : 1 280 pixels
Height : 720 pixels
Display aspect ratio : 16:9
Frame rate mode : Constant
Frame rate : 23.976 (24000/1001) FPS
Color space : YUV
Chroma subsampling : 4:2:0
Bit depth : 8 bits
Scan type : Progressive
Bits/(Pixel*Frame) : 0.101
Stream size : 644 MiB (84%)
Writing library : x264 core 157 r2969 d4099dd
Encoding settings : cabac=1 / ref=5 / deblock=1:0:0 / analyse=0x3:0x113 / me=hex / subme=8 / psy=1 / psy_rd=1.00:0.00 / mixed_ref=1 / me_range=16 / chroma_me=1 / trellis=2 / 8x8dct=1 / cqm=0 / deadzone=21,11 / fast_pskip=1 / chroma_qp_offset=-2 / threads=22 / lookahead_threads=3 / sliced_threads=0 / nr=0 / decimate=1 / interlaced=0 / bluray_compat=0 / constrained_intra=0 / bframes=3 / b_pyramid=2 / b_adapt=1 / b_bias=0 / direct=3 / weightb=1 / open_gop=0 / weightp=2 / keyint=250 / keyint_min=23 / scenecut=40 / intra_refresh=0 / rc_lookahead=50 / rc=crf / mbtree=1 / crf=18.0 / qcomp=0.60 / qpmin=0 / qpmax=69 / qpstep=4 / ip_ratio=1.40 / aq=1:1.00
Default : Yes
Forced : No
Color range : Limited
Matrix coefficients : BT.709

Audio
ID : 2
Format : AC-3
Format/Info : Audio Coding 3
Format settings, Endianness : Big
Codec ID : A_AC3
Duration : 40 min 28 s
Bit rate mode : Constant
Bit rate : 384 kb/s
Channel(s) : 6 channels
Channel positions : Front: L C R, Side: L R, LFE
Sampling rate : 48.0 kHz
Frame rate : 31.250 FPS (1536 SPF)
Bit depth : 16 bits
Compression mode : Lossy
Stream size : 111 MiB (14%)
Service kind : Complete Main
Default : Yes
Forced : No





Chicago Med S04E21


Chicago Med S04E21


Chicago Med S04E21


Chicago Med S04E21


Chicago Med S04E21

All episodes