Featured TV Shows


Chicago Med S06E02

Posted By: Tavaz
720p (HD) / WEB-DL IMDb
Chicago Med S06E02

Chicago Med S06E02
WEB-DL | MKV | 1280x720 | H264 @ 3597 kbps | E-AC-3 @ 640 kbps | 41 min 44 s | 1.26 GiB
Genre: Drama


An emotional thrill ride through the day-to-day chaos of the city's most explosive hospital and the courageous team of doctors who hold it together. They will tackle unique new cases inspired by topical events, forging fiery relationships in the pulse-pounding pandemonium of the emergency room.

bfd3259c3bb646059976a2fa4e0238c3.mkv (1.3 GB)



General
Unique ID : 75046803339491560625941024157394936421 (0x38757D13761B3B674942759CAEBA2265)
Complete name : ./bfd3259c3bb646059976a2fa4e0238c3.mkv
Format : Matroska
Format version : Version 4 / Version 2
File size : 1.26 GiB
Duration : 41 min 44 s
Overall bit rate : 4 324 kb/s
Writing application : Lavf58.42.100
Writing library : Lavf58.42.100
ErrorDetectionType : Per level 1

Video
ID : 1
Format : AVC
Format/Info : Advanced Video Codec
Format profile : High@L3.1
Format settings : CABAC / 4 Ref Frames
Format settings, CABAC : Yes
Format settings, RefFrames : 4 frames
Codec ID : V_MPEG4/ISO/AVC
Duration : 41 min 44 s
Bit rate mode : Constant
Bit rate : 3 598 kb/s
Nominal bit rate : 6 000 kb/s
Width : 1 280 pixels
Height : 720 pixels
Display aspect ratio : 16:9
Frame rate mode : Constant
Frame rate : 23.976 (24000/1001) FPS
Color space : YUV
Chroma subsampling : 4:2:0
Bit depth : 8 bits
Scan type : Progressive
Bits/(Pixel*Frame) : 0.163
Stream size : 1.05 GiB (83%)
Default : Yes
Forced : No
Color range : Limited
Color primaries : BT.709
Transfer characteristics : BT.709
Matrix coefficients : BT.709

Audio
ID : 2
Format : E-AC-3
Format/Info : Enhanced Audio Coding 3
Format settings, Endianness : Big
Codec ID : A_EAC3
Duration : 41 min 44 s
Bit rate mode : Constant
Bit rate : 640 kb/s
Channel(s) : 6 channels
Channel positions : Front: L C R, Side: L R, LFE
Sampling rate : 48.0 kHz
Frame rate : 187.500 FPS (256 SPF)
Bit depth : 32 bits
Compression mode : Lossy
Stream size : 191 MiB (15%)
Service kind : Complete Main
Default : Yes
Forced : No

Text
ID : 3
Format : ASS
Codec ID : S_TEXT/ASS
Codec ID/Info : Advanced Sub Station Alpha
Duration : 41 min 40 s
Compression mode : Lossless
Writing library : Lavc58.80.100 ssa
Default : No
Forced : No





Chicago Med S06E02


Chicago Med S06E02


Chicago Med S06E02


Chicago Med S06E02


Chicago Med S06E02

All episodes