Featured TV Shows


Chicago P.D. S05E21

Posted By: Tavaz
720p (HD) / HDTV IMDb
Chicago P.D. S05E21

Chicago P.D. S05E21
HDTV | MKV | 1280x720 | Spanish | H264 @ 2240 kbps | MPEG Audio @ 192 kbps | 40 min 33 s | 706 MiB
Genre: Crime, Drama

A riveting police drama about the men and women of the Chicago Police Department's District 21 who put it all on the line to serve and protect their community. District 21 is made up of two distinctly different groups: the uniformed cops who patrol the beat and go head-to-head with the city's street crimes and the Intelligence Unit that combats the city's major offenses - organized crime, drug trafficking, high profile murders and beyond.

chicago.pd.s05e21.spanish.720p.hdtv.x264-fcc.sample.mkv (18.2 MB)
chicago.pd.s05e21.spanish.720p.hdtv.x264-fcc.mkv (706.1 MB)



General
Unique ID : 205810030141226871792177509176026039428 (0x9AD591EAE47121F6EE4DF5E96F278484)
Complete name : ./chicago.pd.s05e21.spanish.720p.hdtv.x264-fcc.mkv
Format : Matroska
Format version : Version 4 / Version 2
File size : 706 MiB
Duration : 40 min 33 s
Overall bit rate : 2 434 kb/s
Movie name : chicago.pd.s05e21.720p.fcc
Encoded date : UTC 2018-05-31 10:25:43
Writing application : mkvmerge v19.0.0 ('Brave Captain') 64-bit
Writing library : libebml v1.3.5 + libmatroska v1.4.8

Video
ID : 1
Format : AVC
Format/Info : Advanced Video Codec
Format profile : High@L4.1
Format settings : CABAC / 5 Ref Frames
Format settings, CABAC : Yes
Format settings, RefFrames : 5 frames
Codec ID : V_MPEG4/ISO/AVC
Duration : 40 min 33 s
Bit rate : 2 240 kb/s
Width : 1 280 pixels
Height : 720 pixels
Display aspect ratio : 16:9
Frame rate mode : Constant
Frame rate : 25.000 FPS
Color space : YUV
Chroma subsampling : 4:2:0
Bit depth : 8 bits
Scan type : Progressive
Bits/(Pixel*Frame) : 0.097
Stream size : 650 MiB (92%)
Title : FCC 4ever
Writing library : x264 core 155 r2901 7d0ff22
Encoding settings : opencl=1 / cabac=1 / ref=5 / deblock=1:-3:-3 / analyse=0x3:0x113 / me=hex / subme=8 / psy=1 / psy_rd=1.00:0.00 / mixed_ref=1 / me_range=16 / chroma_me=1 / trellis=2 / 8x8dct=1 / cqm=0 / deadzone=21,11 / fast_pskip=1 / chroma_qp_offset=-2 / threads=18 / lookahead_threads=3 / sliced_threads=0 / nr=0 / decimate=1 / interlaced=0 / bluray_compat=0 / constrained_intra=0 / bframes=3 / b_pyramid=2 / b_adapt=1 / b_bias=0 / direct=3 / weightb=1 / open_gop=0 / weightp=2 / keyint=250 / keyint_min=25 / scenecut=40 / intra_refresh=0 / rc_lookahead=50 / rc=crf / mbtree=1 / crf=18.0 / qcomp=0.60 / qpmin=0 / qpmax=69 / qpstep=4 / ip_ratio=1.40 / aq=1:1.00
Language : Spanish
Default : Yes
Forced : No

Audio
ID : 2
Format : MPEG Audio
Format version : Version 1
Format profile : Layer 2
Codec ID : A_MPEG/L2
Codec ID/Hint : MP2
Duration : 40 min 33 s
Bit rate mode : Constant
Bit rate : 192 kb/s
Channel(s) : 2 channels
Sampling rate : 48.0 kHz
Frame rate : 41.667 FPS (1152 SPF)
Compression mode : Lossy
Stream size : 55.7 MiB (8%)
Title : FCC 4ever
Language : Spanish
Default : Yes
Forced : No





Chicago P.D. S05E21


Chicago P.D. S05E21


Chicago P.D. S05E21


Chicago P.D. S05E21


Chicago P.D. S05E21

All episodes