Chicago P.D. S06E09

Posted By: Tavaz
1080p (FullHD) / WEB-DL IMDb
Chicago P.D. S06E09

Chicago P.D. S06E09
WEB-DL | MKV | 1920x1080 | English | H264 @ 6462 kbps | E-AC-3 @ 640 kbps | 40 min 28 s | 2.01 GiB
Subtitles: English
Genre: Crime, Drama

A riveting police drama about the men and women of the Chicago Police Department's District 21 who put it all on the line to serve and protect their community. District 21 is made up of two distinctly different groups: the uniformed cops who patrol the beat and go head-to-head with the city's street crimes and the Intelligence Unit that combats the city's major offenses - organized crime, drug trafficking, high profile murders and beyond.

Chicago.P.D.S06E09.Descent.1080p.AMZN.WEB-DL.DDP5.1.H.264-KiNGS.mkv (2.0 GB)



General
Unique ID : 273461641635002121550732241869310649075 (0xCDBACBE29D559763BBAE14249265E2F3)
Complete name : ./Chicago.P.D.S06E09.Descent.1080p.AMZN.WEB-DL.DDP5.1.H.264-KiNGS.mkv
Format : Matroska
Format version : Version 4 / Version 2
File size : 2.01 GiB
Duration : 40 min 28 s
Overall bit rate : 7 104 kb/s
Encoded date : UTC 2018-12-06 14:00:02
Writing application : mkvmerge v19.0.0 ('Brave Captain') 64-bit
Writing library : libebml v1.3.5 + libmatroska v1.4.8

Video
ID : 1
Format : AVC
Format/Info : Advanced Video Codec
Format profile : High@L4
Format settings : CABAC / 4 Ref Frames
Format settings, CABAC : Yes
Format settings, RefFrames : 4 frames
Codec ID : V_MPEG4/ISO/AVC
Duration : 40 min 28 s
Bit rate : 6 462 kb/s
Width : 1 920 pixels
Height : 1 080 pixels
Display aspect ratio : 16:9
Frame rate mode : Constant
Frame rate : 23.976 (24000/1001) FPS
Color space : YUV
Chroma subsampling : 4:2:0
Bit depth : 8 bits
Scan type : Progressive
Bits/(Pixel*Frame) : 0.130
Stream size : 1.83 GiB (91%)
Default : Yes
Forced : No
Color range : Limited
Color primaries : BT.709
Transfer characteristics : BT.709
Matrix coefficients : BT.709

Audio
ID : 2
Format : E-AC-3
Format/Info : Enhanced Audio Coding 3
Format settings, Endianness : Big
Codec ID : A_EAC3
Duration : 40 min 28 s
Bit rate mode : Constant
Bit rate : 640 kb/s
Channel(s) : 6 channels
Channel positions : Front: L C R, Side: L R, LFE
Sampling rate : 48.0 kHz
Frame rate : 187.500 FPS (256 SPF)
Compression mode : Lossy
Stream size : 185 MiB (9%)
Language : English
Service kind : Complete Main
Default : Yes
Forced : No

Text #1
ID : 3
Format : UTF-8
Codec ID : S_TEXT/UTF8
Codec ID/Info : UTF-8 Plain Text
Duration : 39 min 37 s
Bit rate : 80 b/s
Count of elements : 801
Stream size : 23.3 KiB (0%)
Language : English
Default : No
Forced : No

Text #2
ID : 4
Format : UTF-8
Codec ID : S_TEXT/UTF8
Codec ID/Info : UTF-8 Plain Text
Duration : 40 min 19 s
Bit rate : 89 b/s
Count of elements : 933
Stream size : 26.4 KiB (0%)
Title : SDH
Language : English
Default : No
Forced : No





Chicago P.D. S06E09


Chicago P.D. S06E09


Chicago P.D. S06E09


Chicago P.D. S06E09


Chicago P.D. S06E09

All episodes