Featured TV Shows


Chicago P.D. S06E13

Posted By: Tavaz
1080p (FullHD) / HDTV IMDb
Chicago P.D. S06E13

Chicago P.D. S06E13
HDTV | MKV | 1920x1080 | French / English | H264 @ 8990 kbps | AAC @ 61 kbps | 39 min 41 s | 2.53 GiB
Subtitles: French
Genre: Crime, Drama


A riveting police drama about the men and women of the Chicago Police Department's District 21 who put it all on the line to serve and protect their community. District 21 is made up of two distinctly different groups: the uniformed cops who patrol the beat and go head-to-head with the city's street crimes and the Intelligence Unit that combats the city's major offenses - organized crime, drug trafficking, high profile murders and beyond.

8cbc2806490640f2a0e5f812b306ed7d.mkv (2.5 GB)



General
Unique ID : 242194179401801682325127942346650642209 (0xB634E6F9A278318206C536846D0B6721)
Complete name : ./8cbc2806490640f2a0e5f812b306ed7d.mkv
Format : Matroska
Format version : Version 4 / Version 2
File size : 2.53 GiB
Duration : 39 min 41 s
Overall bit rate : 9 117 kb/s
Encoded date : UTC 2020-01-14 23:32:34
Writing application : mkvmerge v42.0.0 ('Overtime') 64-bit
Writing library : libebml v1.3.10 + libmatroska v1.5.2

Video
ID : 1
Format : AVC
Format/Info : Advanced Video Codec
Format profile : High@L4
Format settings : CABAC / 4 Ref Frames
Format settings, CABAC : Yes
Format settings, RefFrames : 4 frames
Codec ID : V_MPEG4/ISO/AVC
Duration : 39 min 41 s
Bit rate : 8 990 kb/s
Width : 1 920 pixels
Height : 1 080 pixels
Display aspect ratio : 16:9
Frame rate mode : Constant
Frame rate : 25.000 FPS
Standard : Component
Color space : YUV
Chroma subsampling : 4:2:0
Bit depth : 8 bits
Scan type : MBAFF
Scan type, store method : Interleaved fields
Scan order : Top Field First
Bits/(Pixel*Frame) : 0.173
Stream size : 2.49 GiB (99%)
Default : No
Forced : No
Color range : Limited
Color primaries : BT.709
Transfer characteristics : BT.709
Matrix coefficients : BT.709

Audio #1
ID : 2
Format : AAC
Format/Info : Advanced Audio Codec
Format profile : HE-AAC / LC
Format settings : Explicit
Codec ID : A_AAC-2
Duration : 39 min 41 s
Bit rate : 61.9 kb/s
Channel(s) : 2 channels
Channel positions : Front: L R
Sampling rate : 48.0 kHz / 24.0 kHz
Frame rate : 23.438 FPS (1024 SPF)
Compression mode : Lossy
Stream size : 17.6 MiB (1%)
Title : French
Language : French
Default : Yes
Forced : No

Audio #2
ID : 3
Format : AAC
Format/Info : Advanced Audio Codec
Format profile : HE-AAC / LC
Format settings : Explicit
Codec ID : A_AAC-2
Duration : 39 min 41 s
Bit rate : 61.9 kb/s
Channel(s) : 2 channels
Channel positions : Front: L R
Sampling rate : 48.0 kHz / 24.0 kHz
Frame rate : 23.438 FPS (1024 SPF)
Compression mode : Lossy
Stream size : 17.6 MiB (1%)
Title : English
Language : English
Default : No
Forced : No

Text #1
ID : 4
Format : UTF-8
Codec ID : S_TEXT/UTF8
Codec ID/Info : UTF-8 Plain Text
Duration : 39 min 15 s
Bit rate : 70 b/s
Count of elements : 643
Stream size : 20.3 KiB (0%)
Title : French
Language : French
Default : No
Forced : No

Text #2
ID : 5
Format : UTF-8
Codec ID : S_TEXT/UTF8
Codec ID/Info : UTF-8 Plain Text
Duration : 39 min 25 s
Bit rate : 73 b/s
Count of elements : 714
Stream size : 21.2 KiB (0%)
Title : French (SDH)
Language : French
Default : No
Forced : No





Chicago P.D. S06E13


Chicago P.D. S06E13


Chicago P.D. S06E13


Chicago P.D. S06E13


Chicago P.D. S06E13

All episodes