Featured TV Shows


Clarice S01E01

Posted By: MegoNecia
720p (HD) / WEBRip IMDb
Clarice S01E01

Clarice S01E01
WEBRip | MKV | 1280x720 | English | H264 @ 3232 kbps | E-AC-3 @ 640 kbps | 42 min 36 s | 1.18 GiB
Subtitles: English
Genre: Crime, Drama, Mystery


A look at the untold personal story of FBI agent Clarice Starling, as she returns to the field about a year after the events of The Silence of the Lambs (1991).

37b372e1b54a9d26e7105b7176705445.mkv (1.2 GB)



General
Unique ID : 292156225021441412505282630225486742187 (0xDBCB3E022E901939FCFBBB1C6FB102AB)
Complete name : ./37b372e1b54a9d26e7105b7176705445.mkv
Format : Matroska
Format version : Version 4 / Version 2
File size : 1.18 GiB
Duration : 42 min 36 s
Overall bit rate : 3 951 kb/s
Writing application : mkvmerge v49.0.0 ('Sick Of Losing Soulmates') 64-bit
Writing library : libebml v1.4.0 + libmatroska v1.6.1

Video
ID : 1
Format : AVC
Format/Info : Advanced Video Codec
Format profile : High@L3.1
Format settings : CABAC / 4 Ref Frames
Format settings, CABAC : Yes
Format settings, RefFrames : 4 frames
Codec ID : V_MPEG4/ISO/AVC
Duration : 42 min 36 s
Bit rate mode : Constant
Bit rate : 3 233 kb/s
Nominal bit rate : 6 000 kb/s
Width : 1 280 pixels
Height : 720 pixels
Display aspect ratio : 16:9
Frame rate mode : Constant
Frame rate : 24.000 FPS
Color space : YUV
Chroma subsampling : 4:2:0
Bit depth : 8 bits
Scan type : Progressive
Bits/(Pixel*Frame) : 0.146
Stream size : 985 MiB (82%)
Default : Yes
Forced : No
Color range : Limited
Color primaries : BT.709
Transfer characteristics : BT.709
Matrix coefficients : BT.709

Audio
ID : 2
Format : E-AC-3
Format/Info : Enhanced Audio Coding 3
Format settings, Endianness : Big
Codec ID : A_EAC3
Duration : 42 min 36 s
Bit rate mode : Constant
Bit rate : 640 kb/s
Channel(s) : 6 channels
Channel positions : Front: L C R, Side: L R, LFE
Sampling rate : 48.0 kHz
Frame rate : 187.500 FPS (256 SPF)
Compression mode : Lossy
Stream size : 195 MiB (16%)
Language : English
Service kind : Complete Main
Default : Yes
Forced : No

Text
ID : 3
Format : UTF-8
Codec ID : S_TEXT/UTF8
Codec ID/Info : UTF-8 Plain Text
Title : English
Language : English
Default : No
Forced : No





Clarice S01E01


Clarice S01E01


Clarice S01E01


Clarice S01E01

All episodes