Featured TV Shows


Clarice S01E01 The Silence is Over

Posted By: MegoNecia
1080p (FullHD) / WEB-DL IMDb
Clarice S01E01 The Silence is Over

Clarice S01E01 The Silence is Over
WEB-DL | MKV | 1920x1080 | English | H264 @ 8145 kbps | E-AC-3 @ 640 kbps | 42 min 43 s | 2.62 GiB
Subtitles: English
Genre: Crime, Drama, Mystery

A look at the untold personal story of FBI agent Clarice Starling, as she returns to the field about a year after the events of The Silence of the Lambs (1991).

e4a221904ebe74f500b9d716319a94d3.mkv (2.6 GB)



General
Unique ID : 136920780678726168207190982620689468662 (0x6701FBAFD62B77DA89B1A42CF9540CF6)
Complete name : ./e4a221904ebe74f500b9d716319a94d3.mkv
Format : Matroska
Format version : Version 4 / Version 2
File size : 2.62 GiB
Duration : 42 min 43 s
Overall bit rate : 8 788 kb/s
Writing application : mkvmerge v53.0.0 ('Fool's Gold') 64-bit
Writing library : libebml v1.4.1 + libmatroska v1.6.2

Video
ID : 1
Format : AVC
Format/Info : Advanced Video Codec
Format profile : High@L4
Format settings : CABAC / 4 Ref Frames
Format settings, CABAC : Yes
Format settings, RefFrames : 4 frames
Codec ID : V_MPEG4/ISO/AVC
Duration : 42 min 43 s
Bit rate mode : Constant
Bit rate : 8 146 kb/s
Nominal bit rate : 10 000 kb/s
Width : 1 920 pixels
Height : 1 080 pixels
Display aspect ratio : 16:9
Frame rate mode : Constant
Frame rate : 23.976 (24000/1001) FPS
Color space : YUV
Chroma subsampling : 4:2:0
Bit depth : 8 bits
Scan type : Progressive
Bits/(Pixel*Frame) : 0.164
Stream size : 2.43 GiB (93%)
Default : Yes
Forced : No
Color range : Limited
Color primaries : BT.709
Transfer characteristics : BT.709
Matrix coefficients : BT.709

Audio
ID : 2
Format : E-AC-3
Format/Info : Enhanced Audio Coding 3
Format settings, Endianness : Big
Codec ID : A_EAC3
Duration : 42 min 43 s
Bit rate mode : Constant
Bit rate : 640 kb/s
Channel(s) : 6 channels
Channel positions : Front: L C R, Side: L R, LFE
Sampling rate : 48.0 kHz
Frame rate : 187.500 FPS (256 SPF)
Compression mode : Lossy
Stream size : 196 MiB (7%)
Language : English
Service kind : Complete Main
Default : Yes
Forced : No

Text
ID : 3
Format : UTF-8
Codec ID : S_TEXT/UTF8
Codec ID/Info : UTF-8 Plain Text
Duration : 42 min 22 s
Bit rate : 90 b/s
Count of elements : 959
Stream size : 28.0 KiB (0%)
Title : SDH
Language : English
Default : No
Forced : No





Clarice S01E01 The Silence is Over


Clarice S01E01 The Silence is Over


Clarice S01E01 The Silence is Over


Clarice S01E01 The Silence is Over


Clarice S01E01 The Silence is Over

All episodes