Featured TV Shows


Clarice S01E04

Posted By: Tavaz
720p (HD) / HDTV IMDb
Clarice S01E04

Clarice S01E04
HDTV | MKV | 1280x720 | H264 @ 1779 kbps | AC-3 @ 384 kbps | 40 min 58 s | 635 MiB
Genre: Crime, Drama


In 1993, six months after the events of The Silence of the Lambs, FBI Agent Clarice Starling returns to the field to pursue serial murderers and sexual predators while navigating the high stakes political world of Washington, D.C.

99c4331e3466469885e8dfec418acca8.mkv (634.5 MB)



General
Unique ID : 155923215649484046020258998648380308269 (0x754DB810ACF20B48DA148CA36293BB2D)
Complete name : ./99c4331e3466469885e8dfec418acca8.mkv
Format : Matroska
Format version : Version 4 / Version 2
File size : 635 MiB
Duration : 40 min 58 s
Overall bit rate : 2 165 kb/s
Encoded date : UTC 2021-03-05 04:03:21
Writing application : mkvmerge v44.0.0 ('Domino') 64-bit
Writing library : libebml v1.3.10 + libmatroska v1.5.2

Video
ID : 1
Format : AVC
Format/Info : Advanced Video Codec
Format profile : High@L4.1
Format settings : CABAC / 5 Ref Frames
Format settings, CABAC : Yes
Format settings, RefFrames : 5 frames
Codec ID : V_MPEG4/ISO/AVC
Duration : 40 min 58 s
Bit rate : 1 779 kb/s
Width : 1 280 pixels
Height : 720 pixels
Display aspect ratio : 16:9
Frame rate mode : Constant
Frame rate : 23.976 (24000/1001) FPS
Color space : YUV
Chroma subsampling : 4:2:0
Bit depth : 8 bits
Scan type : Progressive
Bits/(Pixel*Frame) : 0.081
Stream size : 521 MiB (82%)
Writing library : x264 core 161 r3048 b86ae3c
Encoding settings : cabac=1 / ref=5 / deblock=1:0:0 / analyse=0x3:0x113 / me=hex / subme=8 / psy=1 / psy_rd=1.00:0.00 / mixed_ref=1 / me_range=16 / chroma_me=1 / trellis=2 / 8x8dct=1 / cqm=0 / deadzone=21,11 / fast_pskip=1 / chroma_qp_offset=-2 / threads=22 / lookahead_threads=3 / sliced_threads=0 / nr=0 / decimate=1 / interlaced=0 / bluray_compat=0 / constrained_intra=0 / bframes=3 / b_pyramid=2 / b_adapt=1 / b_bias=0 / direct=3 / weightb=1 / open_gop=0 / weightp=2 / keyint=250 / keyint_min=23 / scenecut=40 / intra_refresh=0 / rc_lookahead=50 / rc=crf / mbtree=1 / crf=18.0 / qcomp=0.60 / qpmin=0 / qpmax=69 / qpstep=4 / ip_ratio=1.40 / aq=1:1.00
Language : English
Default : Yes
Forced : No
Color range : Limited
Matrix coefficients : BT.709

Audio
ID : 2
Format : AC-3
Format/Info : Audio Coding 3
Format settings, Endianness : Big
Codec ID : A_AC3
Duration : 40 min 58 s
Bit rate mode : Constant
Bit rate : 384 kb/s
Channel(s) : 6 channels
Channel positions : Front: L C R, Side: L R, LFE
Sampling rate : 48.0 kHz
Frame rate : 31.250 FPS (1536 SPF)
Bit depth : 16 bits
Compression mode : Lossy
Stream size : 113 MiB (18%)
Service kind : Complete Main
Default : Yes
Forced : No





Clarice S01E04


Clarice S01E04


Clarice S01E04


Clarice S01E04


Clarice S01E04

All episodes