Featured TV Shows


Clarice S01E07

Posted By: Tavaz
720p (HD) / WEBRip IMDb
Clarice S01E07

Clarice S01E07
WEBRip | MKV | 1280x720 | English | H264 @ 2380 kbps | E-AC-3 @ 640 kbps | 42 min 39 s | 922 MiB
Subtitles: English
Genre: Crime, Drama


In 1993, six months after the events of The Silence of the Lambs, FBI Agent Clarice Starling returns to the field to pursue serial murderers and sexual predators while navigating the high stakes political world of Washington, D.C.

4441ef6e268042b9843b7aa1ad73e1bb.mkv (922.0 MB)



General
Unique ID : 13602661755612170863284696438883743387 (0xA3BC7010E1EEB17D02651CE98D7F69B)
Complete name : ./4441ef6e268042b9843b7aa1ad73e1bb.mkv
Format : Matroska
Format version : Version 4 / Version 2
File size : 922 MiB
Duration : 42 min 39 s
Overall bit rate : 3 022 kb/s
Writing application : mkvmerge v55.0.0 ('Waiting For Space') 64-bit
Writing library : libebml v1.4.2 + libmatroska v1.6.4

Video
ID : 1
Format : AVC
Format/Info : Advanced Video Codec
Format profile : High@L3.1
Format settings : CABAC / 4 Ref Frames
Format settings, CABAC : Yes
Format settings, RefFrames : 4 frames
Codec ID : V_MPEG4/ISO/AVC
Duration : 42 min 39 s
Bit rate mode : Constant
Bit rate : 2 380 kb/s
Nominal bit rate : 6 000 kb/s
Width : 1 280 pixels
Height : 720 pixels
Display aspect ratio : 16:9
Frame rate mode : Constant
Frame rate : 24.000 FPS
Color space : YUV
Chroma subsampling : 4:2:0
Bit depth : 8 bits
Scan type : Progressive
Bits/(Pixel*Frame) : 0.108
Stream size : 726 MiB (79%)
Language : English
Default : Yes
Forced : No
Color range : Limited
Color primaries : BT.709
Transfer characteristics : BT.709
Matrix coefficients : BT.709

Audio
ID : 2
Format : E-AC-3
Format/Info : Enhanced Audio Coding 3
Format settings, Endianness : Big
Codec ID : A_EAC3
Duration : 42 min 39 s
Bit rate mode : Constant
Bit rate : 640 kb/s
Channel(s) : 6 channels
Channel positions : Front: L C R, Side: L R, LFE
Sampling rate : 48.0 kHz
Frame rate : 187.500 FPS (256 SPF)
Compression mode : Lossy
Stream size : 195 MiB (21%)
Language : English
Service kind : Complete Main
Default : Yes
Forced : No

Text
ID : 3
Format : UTF-8
Codec ID : S_TEXT/UTF8
Codec ID/Info : UTF-8 Plain Text
Duration : 42 min 26 s
Bit rate : 81 b/s
Count of elements : 951
Stream size : 25.4 KiB (0%)
Title : English (SDH)
Language : English
Default : No
Forced : No





Clarice S01E07


Clarice S01E07


Clarice S01E07


Clarice S01E07


Clarice S01E07

All episodes