Featured TV Shows


Ozark S01E02

Posted By: Tavaz
1080p (FullHD) / WEB-DL IMDb
Ozark S01E02

Ozark S01E02
WEB-DL | MKV | 1920x1080 | English | H264 @ 5876 kbps | AAC @ 64 kbps | 42 min 48 s | 1.78 GiB
Subtitles: English
Genre: Crime, Drama


A financial adviser drags his family from Chicago to the Missouri Ozarks, where he must launder $500 million in five years to appease a drug boss.

7fce8728a7ac4fefa31876d13fd5a8ca.mkv (1.8 GB)



General
Unique ID : 121479260254671875500392699807323964564 (0x5B640DF35C7C2692EBE0780DF218C494)
Complete name : ./7fce8728a7ac4fefa31876d13fd5a8ca.mkv
Format : Matroska
Format version : Version 4 / Version 2
File size : 1.78 GiB
Duration : 42 min 48 s
Overall bit rate : 5 943 kb/s
Encoded date : UTC 2020-01-13 13:51:00
Writing application : mkvmerge v38.0.0 ('The Silent Type') 64-bit
Writing library : libebml v1.3.9 + libmatroska v1.5.2

Video
ID : 1
Format : AVC
Format/Info : Advanced Video Codec
Format profile : High@L4
Format settings : CABAC / 4 Ref Frames
Format settings, CABAC : Yes
Format settings, RefFrames : 4 frames
Codec ID : V_MPEG4/ISO/AVC
Duration : 42 min 48 s
Bit rate : 5 877 kb/s
Width : 1 920 pixels
Height : 1 080 pixels
Display aspect ratio : 16:9
Frame rate mode : Constant
Frame rate : 29.970 (30000/1001) FPS
Color space : YUV
Chroma subsampling : 4:2:0
Bit depth : 8 bits
Scan type : Progressive
Bits/(Pixel*Frame) : 0.095
Stream size : 1.76 GiB (99%)
Default : Yes
Forced : No

Audio
ID : 2
Format : AAC
Format/Info : Advanced Audio Codec
Format profile : HE-AAC / LC
Format settings : Explicit
Codec ID : A_AAC-2
Duration : 42 min 48 s
Bit rate : 64.0 kb/s
Channel(s) : 2 channels
Channel positions : Front: L R
Sampling rate : 48.0 kHz / 24.0 kHz
Frame rate : 23.438 FPS (1024 SPF)
Compression mode : Lossy
Stream size : 19.6 MiB (1%)
Language : English
Default : Yes
Forced : No

Text
ID : 3
Format : UTF-8
Codec ID : S_TEXT/UTF8
Codec ID/Info : UTF-8 Plain Text
Duration : 42 min 33 s
Bit rate : 83 b/s
Count of elements : 724
Stream size : 26.1 KiB (0%)
Language : English
Default : No
Forced : No





Ozark S01E02


Ozark S01E02


Ozark S01E02


Ozark S01E02


Ozark S01E02

All episodes