Index
# A B C D E F G H I J K L M N O P Q R S T U V W Y Z
Tags
Language
Tags

Featured TV Shows


Ozark S01E05

Posted By: Tavaz
720p (HD) / WEB-DL IMDb
Ozark S01E05

Ozark S01E05
WEB-DL | MKV | 1280x720 | English | H264 @ 3059 kbps | AAC @ 64 kbps | 42 min 48 s | 957 MiB
Subtitles: English
Genre: Crime, Drama


A financial adviser drags his family from Chicago to the Missouri Ozarks, where he must launder $500 million in five years to appease a drug boss.

711eafaf5a7d452db6a8d324fea6181e.mkv (957.2 MB)



General
Unique ID : 309789294143414830371439391625225766084 (0xE90F3F70178FF2BD05080FB5C18904C4)
Complete name : ./711eafaf5a7d452db6a8d324fea6181e.mkv
Format : Matroska
Format version : Version 4 / Version 2
File size : 957 MiB
Duration : 42 min 48 s
Overall bit rate : 3 126 kb/s
Encoded date : UTC 2020-01-12 22:06:29
Writing application : mkvmerge v38.0.0 ('The Silent Type') 64-bit
Writing library : libebml v1.3.9 + libmatroska v1.5.2

Video
ID : 1
Format : AVC
Format/Info : Advanced Video Codec
Format profile : High@L3.1
Format settings : CABAC / 5 Ref Frames
Format settings, CABAC : Yes
Format settings, RefFrames : 5 frames
Codec ID : V_MPEG4/ISO/AVC
Duration : 42 min 48 s
Bit rate : 3 060 kb/s
Width : 1 280 pixels
Height : 720 pixels
Display aspect ratio : 16:9
Frame rate mode : Constant
Frame rate : 29.970 (30000/1001) FPS
Color space : YUV
Chroma subsampling : 4:2:0
Bit depth : 8 bits
Scan type : Progressive
Bits/(Pixel*Frame) : 0.111
Stream size : 937 MiB (98%)
Default : Yes
Forced : No

Audio
ID : 2
Format : AAC
Format/Info : Advanced Audio Codec
Format profile : HE-AAC / LC
Format settings : Explicit
Codec ID : A_AAC-2
Duration : 42 min 48 s
Bit rate : 64.0 kb/s
Channel(s) : 2 channels
Channel positions : Front: L R
Sampling rate : 48.0 kHz / 24.0 kHz
Frame rate : 23.438 FPS (1024 SPF)
Compression mode : Lossy
Stream size : 19.6 MiB (2%)
Language : English
Default : Yes
Forced : No

Text
ID : 3
Format : UTF-8
Codec ID : S_TEXT/UTF8
Codec ID/Info : UTF-8 Plain Text
Duration : 42 min 30 s
Bit rate : 84 b/s
Count of elements : 696
Stream size : 26.2 KiB (0%)
Language : English
Default : No
Forced : No





Ozark S01E05


Ozark S01E05


Ozark S01E05


Ozark S01E05


Ozark S01E05

All episodes