Featured TV Shows


Claws S02E06

Posted By: Tavaz
720p (HD) / WEB-DL IMDb
Claws S02E06

Claws S02E06
WEB-DL | MKV | 1280x720 | English | H264 @ 2632 kbps | E-AC-3 @ 640 kbps | 46 min 29 s | 1.06 GiB
Subtitles: English
Genre: Comedy, Drama

Follow the life and crimes of five diverse and treacherous manicurists working at the Nail Artisan of Manatee County salon, where there is a lot more going on than silk wraps and pedicures.

d48512f725954c569285eba7664c2efe.mkv (1.1 GB)



General
Complete name : ./d48512f725954c569285eba7664c2efe.mkv
Format : Matroska
Format version : Version 4 / Version 2
File size : 1.06 GiB
Duration : 46 min 29 s
Overall bit rate : 3 275 kb/s
Encoded date : UTC 2018-07-16 08:49:57
Writing application : mkvmerge v23.0.0 ('The Bride Said No') 64-bit
Writing library : libebml v1.3.6 + libmatroska v1.4.9

Video
ID : 1
Format : AVC
Format/Info : Advanced Video Codec
Format profile : High@L3.1
Format settings : CABAC / 5 Ref Frames
Format settings, CABAC : Yes
Format settings, RefFrames : 5 frames
Codec ID : V_MPEG4/ISO/AVC
Duration : 46 min 29 s
Bit rate : 2 633 kb/s
Width : 1 280 pixels
Height : 720 pixels
Display aspect ratio : 16:9
Frame rate mode : Constant
Frame rate : 23.976 (24000/1001) FPS
Color space : YUV
Chroma subsampling : 4:2:0
Bit depth : 8 bits
Scan type : Progressive
Bits/(Pixel*Frame) : 0.119
Stream size : 876 MiB (80%)
Default : Yes
Forced : No
Color range : Limited
Color primaries : BT.709
Transfer characteristics : BT.709
Matrix coefficients : BT.709

Audio
ID : 2
Format : E-AC-3
Format/Info : Enhanced Audio Coding 3
Format settings, Endianness : Big
Codec ID : A_EAC3
Duration : 46 min 29 s
Bit rate mode : Constant
Bit rate : 640 kb/s
Channel(s) : 6 channels
Channel positions : Front: L C R, Side: L R, LFE
Sampling rate : 48.0 kHz
Frame rate : 187.500 FPS (256 SPF)
Compression mode : Lossy
Stream size : 213 MiB (20%)
Language : English
Service kind : Complete Main
Default : Yes
Forced : No

Text
ID : 3
Format : UTF-8
Codec ID : S_TEXT/UTF8
Codec ID/Info : UTF-8 Plain Text
Duration : 46 min 22 s
Bit rate : 85 b/s
Count of elements : 1017
Stream size : 29.1 KiB (0%)
Title : SDH
Language : English
Default : No
Forced : No





Claws S02E06


Claws S02E06


Claws S02E06


Claws S02E06


Claws S02E06

All episodes