Featured TV Shows


Code Black S03E13

Posted By: Tavaz
SD / HDTV IMDb
Code Black S03E13

Code Black S03E13
HDTV | MKV | 720x404 | German | H264 @ 784 kbps | AC-3 @ 192 kbps | 41 min 9 s | 293 MiB
Genre: Drama

In „Code Black“ von Autor Michael Seitzman steht die hektische Notaufnahme des L.A. County Hospitals im Fokus, in welchem engagierte Ärzte mit vollem Einsatz um das Leben und Wohlergehen ihrer Patienten kämpfen. Als Inspiration diente der gleichnamige Dokumentarfilm von 2013, der beim Los Angeles Film Festival gezeigt wurde und von der Arbeit in der Notaufnahme des L.A. County Hospitals berichtet.

CB S03E13.mkv (293.3 MB)



General
Unique ID : 64841669620903867458059475244760280609 (0x30C80D23174C4E8E87FAB1ADFCA5AE21)
Complete name : ./Co schwarz S03E13 German/CB S03E13.mkv
Format : Matroska
Format version : Version 4 / Version 2
File size : 293 MiB
Duration : 41 min 9 s
Overall bit rate : 996 kb/s
Encoded date : UTC 2018-12-28 09:54:18
Writing application : mkvmerge v29.0.0 ('Like It Or Not') 64-bit
Writing library : libebml v1.3.6 + libmatroska v1.4.9

Video
ID : 1
Format : AVC
Format/Info : Advanced Video Codec
Format profile : High@L3.1
Format settings : CABAC / 5 Ref Frames
Format settings, CABAC : Yes
Format settings, RefFrames : 5 frames
Codec ID : V_MPEG4/ISO/AVC
Duration : 41 min 9 s
Bit rate : 784 kb/s
Width : 720 pixels
Height : 404 pixels
Display aspect ratio : 16:9
Frame rate mode : Constant
Frame rate : 25.000 FPS
Color space : YUV
Chroma subsampling : 4:2:0
Bit depth : 8 bits
Scan type : Progressive
Bits/(Pixel*Frame) : 0.108
Stream size : 231 MiB (79%)
Writing library : x264 core 157 r2935 545de2f
Encoding settings : cabac=1 / ref=5 / deblock=1:-2:-2 / analyse=0x3:0x113 / me=umh / subme=8 / psy=1 / psy_rd=1.00:0.00 / mixed_ref=1 / me_range=16 / chroma_me=1 / trellis=2 / 8x8dct=1 / cqm=0 / deadzone=21,11 / fast_pskip=0 / chroma_qp_offset=-2 / threads=13 / lookahead_threads=2 / sliced_threads=0 / nr=0 / decimate=1 / interlaced=0 / bluray_compat=0 / constrained_intra=0 / bframes=3 / b_pyramid=2 / b_adapt=2 / b_bias=0 / direct=3 / weightb=1 / open_gop=0 / weightp=2 / keyint=250 / keyint_min=25 / scenecut=40 / intra_refresh=0 / rc_lookahead=50 / rc=crf / mbtree=1 / crf=19.0 / qcomp=0.60 / qpmin=0 / qpmax=69 / qpstep=4 / ip_ratio=1.40 / aq=1:0.80
Language : English
Default : Yes
Forced : No

Audio
ID : 2
Format : AC-3
Format/Info : Audio Coding 3
Format settings, Endianness : Big
Codec ID : A_AC3
Duration : 41 min 9 s
Bit rate mode : Constant
Bit rate : 192 kb/s
Channel(s) : 2 channels
Channel positions : Front: L R
Sampling rate : 48.0 kHz
Frame rate : 31.250 FPS (1536 SPF)
Bit depth : 16 bits
Compression mode : Lossy
Stream size : 56.5 MiB (19%)
Language : German
Service kind : Complete Main
Default : Yes
Forced : No





Code Black S03E13


Code Black S03E13


Code Black S03E13


Code Black S03E13


Code Black S03E13

All episodes