Featured TV Shows


Coroner S02E07

Posted By: Tavaz
720p (HD) / WEB-DL IMDb
Coroner S02E07

Coroner S02E07
WEB-DL | MKV | 1280x720 | H264 @ 3608 kbps | E-AC-3 @ 224 kbps | 43 min 37 s | 1.19 GiB
Genre: Drama


Jenny Cooper investigates unexplained or sudden deaths in the city of Toronto. Fierce and quick-witted, Jenny is a newly-widowed single mother with secrets of her own to unearth.

ba12d49d8d7148f7804e9519549b5cf8.mkv (1.2 GB)



General
Unique ID : 156193800637187769531051255059475125053 (0x7581D4EF5E7676AB8FC4E3AE5300D33D)
Complete name : ./ba12d49d8d7148f7804e9519549b5cf8.mkv
Format : Matroska
Format version : Version 4 / Version 2
File size : 1.19 GiB
Duration : 43 min 37 s
Overall bit rate : 3 910 kb/s
Writing application : Lavf58.42.100
Writing library : Lavf58.42.100
ErrorDetectionType : Per level 1

Video
ID : 1
Format : AVC
Format/Info : Advanced Video Codec
Format profile : High@L3.1
Format settings : CABAC / 4 Ref Frames
Format settings, CABAC : Yes
Format settings, RefFrames : 4 frames
Codec ID : V_MPEG4/ISO/AVC
Duration : 43 min 37 s
Bit rate mode : Constant
Bit rate : 3 608 kb/s
Nominal bit rate : 6 000 kb/s
Width : 1 280 pixels
Height : 720 pixels
Display aspect ratio : 16:9
Frame rate mode : Constant
Frame rate : 23.976 (24000/1001) FPS
Color space : YUV
Chroma subsampling : 4:2:0
Bit depth : 8 bits
Scan type : Progressive
Bits/(Pixel*Frame) : 0.163
Stream size : 1.10 GiB (92%)
Default : Yes
Forced : No
Color range : Limited
Color primaries : BT.709
Transfer characteristics : BT.709
Matrix coefficients : BT.709

Audio
ID : 2
Format : E-AC-3
Format/Info : Enhanced Audio Coding 3
Format settings, Endianness : Big
Codec ID : A_EAC3
Duration : 43 min 37 s
Bit rate mode : Constant
Bit rate : 224 kb/s
Channel(s) : 2 channels
Channel positions : Front: L R
Sampling rate : 48.0 kHz
Frame rate : 187.500 FPS (256 SPF)
Bit depth : 32 bits
Compression mode : Lossy
Stream size : 69.9 MiB (6%)
Service kind : Complete Main
Default : Yes
Forced : No

Text
ID : 3
Format : ASS
Codec ID : S_TEXT/ASS
Codec ID/Info : Advanced Sub Station Alpha
Duration : 43 min 4 s
Compression mode : Lossless
Writing library : Lavc58.80.100 ssa
Default : No
Forced : No





Coroner S02E07


Coroner S02E07


Coroner S02E07


Coroner S02E07


Coroner S02E07

All episodes