Index
# A B C D E F G H I J K L M N O P Q R S T U V W Y Z
Tags
Language
Tags

Featured TV Shows


Costume Quest S01E04

Posted By: Tavaz
720p (HD) / WEBRip IMDb
Costume Quest S01E04

Costume Quest S01E04
WEBRip | MKV | 1920x1080 | English | H264 @ 5760 kbps | AC-3 @ 192 kbps | 1 h 21 min | 3.39 GiB
Subtitles: English
Genre: Animation


Wren, Reynold, Everett and Lucy face off against ferocious, nougat-munching monsters that lurk in the shadows of the sleepy town of Auburn Hollow. They must learn to use their imaginations to unlock the magical powers of their homemade costumes and save the universe on a night where monsters reign… Halloween!

0cb8ef8e06f14766b2eb31f5343a1e8a.mkv (3.4 GB)



General
Complete name : ./0cb8ef8e06f14766b2eb31f5343a1e8a.mkv
Format : Matroska
Format version : Version 4 / Version 2
File size : 3.39 GiB
Duration : 1 h 21 min
Overall bit rate : 5 945 kb/s
Movie name : Dollman.1991.1080p.BluRay.x264-OFT
Encoded date : UTC 2022-03-01 20:40:15 / UTC 2022-03-01T01:27:59Z
Writing application : mkvmerge v47.0.0 ('Black Flag') 64-bit
Writing library : libebml v1.3.10 + libmatroska v1.5.2 / Lavf57.7.2

Video
ID : 1
Format : AVC
Format/Info : Advanced Video Codec
Format profile : High@L4
Format settings : CABAC / 4 Ref Frames
Format settings, CABAC : Yes
Format settings, RefFrames : 4 frames
Codec ID : V_MPEG4/ISO/AVC
Duration : 1 h 21 min
Bit rate : 5 760 kb/s
Width : 1 920 pixels
Height : 1 080 pixels
Display aspect ratio : 16:9
Frame rate mode : Constant
Frame rate : 23.976 (24000/1001) FPS
Color space : YUV
Chroma subsampling : 4:2:0
Bit depth : 8 bits
Scan type : Progressive
Bits/(Pixel*Frame) : 0.116
Stream size : 3.22 GiB (95%)
Writing library : x264 core 155 r2901 7d0ff22
Encoding settings : cabac=1 / ref=4 / deblock=1:-3:-3 / analyse=0x3:0x133 / me=umh / subme=9 / psy=1 / psy_rd=1.10:0.25 / mixed_ref=1 / me_range=32 / chroma_me=1 / trellis=2 / 8x8dct=1 / cqm=0 / deadzone=6,6 / fast_pskip=1 / chroma_qp_offset=-4 / threads=34 / lookahead_threads=3 / sliced_threads=0 / nr=0 / decimate=1 / interlaced=0 / bluray_compat=0 / constrained_intra=0 / bframes=6 / b_pyramid=2 / b_adapt=2 / b_bias=0 / direct=3 / weightb=1 / open_gop=0 / weightp=2 / keyint=240 / keyint_min=24 / scenecut=40 / intra_refresh=0 / rc_lookahead=40 / rc=2pass / mbtree=1 / bitrate=5760 / ratetol=1.0 / qcomp=0.60 / qpmin=0 / qpmax=69 / qpstep=4 / cplxblur=20.0 / qblur=0.5 / vbv_maxrate=20000 / vbv_bufsize=25000 / nal_hrd=none / filler=0 / ip_ratio=1.40 / aq=1:1.00
Language : English
Default : Yes
Forced : No
Color range : Limited
Color primaries : BT.709
Transfer characteristics : BT.709
Matrix coefficients : BT.709
Statistics Tags Issue : mkvmerge v47.0.0 ('Black Flag') 64-bit 2022-03-01 20:40:15 / mkvmerge v47.0.0 ('Black Flag') 64-bit 2022-03-01 20:40:15 / UTC 2022-03-01T01:27:59Z
FromStats_BitRate : 5750756
FromStats_Duration : 01:21:43.274000000
FromStats_FrameCount : 117561
FromStats_StreamSize : 3524691547

Audio
ID : 2
Format : AC-3
Format/Info : Audio Coding 3
Format settings, Endianness : Big
Codec ID : A_AC3
Duration : 1 h 21 min
Bit rate mode : Constant
Bit rate : 192 kb/s
Channel(s) : 2 channels
Channel positions : Front: L R
Sampling rate : 48.0 kHz
Frame rate : 31.250 FPS (1536 SPF)
Bit depth : 16 bits
Compression mode : Lossy
Stream size : 112 MiB (3%)
Title : Stereo
Language : English
Service kind : Complete Main
Default : Yes
Forced : No
Statistics Tags Issue : mkvmerge v47.0.0 ('Black Flag') 64-bit 2022-03-01 20:40:15 / mkvmerge v47.0.0 ('Black Flag') 64-bit 2022-03-01 20:40:15 / UTC 2022-03-01T01:27:59Z
FromStats_BitRate : 192000
FromStats_Duration : 01:21:43.264000000
FromStats_FrameCount : 153227
FromStats_StreamSize : 117678336

Text
ID : 3
Format : UTF-8
Codec ID : S_TEXT/UTF8
Codec ID/Info : UTF-8 Plain Text
Language : English
Default : No
Forced : No
Statistics Tags Issue : mkvmerge v47.0.0 ('Black Flag') 64-bit 2022-03-01 20:40:15 / mkvmerge v47.0.0 ('Black Flag') 64-bit 2022-03-01 20:40:15 / UTC 2022-03-01T01:27:59Z
FromStats_BitRate : 42
FromStats_Duration : 01:12:22.670000000
FromStats_FrameCount : 605
FromStats_StreamSize : 22873

Menu
00:00:00.000 : :Chapter 1
00:07:00.128 : :Chapter 2
00:14:00.965 : :Chapter 3
00:21:01.469 : :Chapter 4
00:28:01.722 : :Chapter 5
00:35:02.100 : :Chapter 6
00:42:03.021 : :Chapter 7
00:49:03.315 : :Chapter 8
00:56:03.777 : :Chapter 9
01:03:04.281 : :Chapter 10
01:10:04.784 : :Chapter 11
01:17:05.121 : :Chapter 12





Costume Quest S01E04


Costume Quest S01E04


Costume Quest S01E04


Costume Quest S01E04


Costume Quest S01E04

All episodes