Please register here if you want to download anything!

If domain in your address bar is different from the list below
PLEASE LEAVE THAT SITE IMMEDIATELY
❗IT'S A DANGEROUS FAKE❗



Spicy Magazines for Men! ;-)

Featured TV Shows


Costume Quest S01E04

Posted By: Tavaz
1080p (FullHD) / WEBRip IMDb
Costume Quest S01E04

Costume Quest S01E04
WEBRip | MKV | 1920x1080 | English | H264 @ 2958 kbps | E-AC-3 @ 640 kbps | 23 min 36 s | 608 MiB
Subtitles: English
Genre: Animation

Wren, Reynold, Everett and Lucy face off against ferocious, nougat-munching monsters that lurk in the shadows of the sleepy town of Auburn Hollow. They must learn to use their imaginations to unlock the magical powers of their homemade costumes and save the universe on a night where monsters reign… Halloween!

752c7300fe8545478b19f04a00deae75.mkv (607.7 MB)



General
Unique ID : 124447192758185910422031442903657982143 (0x5D9FA8521A5CEE592983D4A113D5A8BF)
Complete name : ./752c7300fe8545478b19f04a00deae75.mkv
Format : Matroska
Format version : Version 4 / Version 2
File size : 608 MiB
Duration : 23 min 36 s
Overall bit rate : 3 600 kb/s
Encoded date : UTC 2019-03-07 22:14:11
Writing application : mkvmerge v25.0.0 ('Prog Noir') 32-bit
Writing library : libebml v1.3.6 + libmatroska v1.4.9

Video
ID : 1
Format : AVC
Format/Info : Advanced Video Codec
Format profile : High@L4
Format settings : CABAC / 4 Ref Frames
Format settings, CABAC : Yes
Format settings, RefFrames : 4 frames
Codec ID : V_MPEG4/ISO/AVC
Duration : 23 min 36 s
Bit rate : 2 958 kb/s
Width : 1 920 pixels
Height : 1 080 pixels
Display aspect ratio : 16:9
Frame rate mode : Constant
Frame rate : 23.976 (24000/1001) FPS
Color space : YUV
Chroma subsampling : 4:2:0
Bit depth : 8 bits
Scan type : Progressive
Bits/(Pixel*Frame) : 0.059
Stream size : 499 MiB (82%)
Default : Yes
Forced : No
Color range : Limited
Color primaries : BT.709
Transfer characteristics : BT.709
Matrix coefficients : BT.709

Audio
ID : 2
Format : E-AC-3
Format/Info : Enhanced Audio Coding 3
Format settings, Endianness : Big
Codec ID : A_EAC3
Duration : 23 min 36 s
Bit rate mode : Constant
Bit rate : 640 kb/s
Channel(s) : 6 channels
Channel positions : Front: L C R, Side: L R, LFE
Sampling rate : 48.0 kHz
Frame rate : 187.500 FPS (256 SPF)
Compression mode : Lossy
Stream size : 108 MiB (18%)
Title : English
Language : English
Service kind : Complete Main
Default : Yes
Forced : No

Text
ID : 3
Format : UTF-8
Codec ID : S_TEXT/UTF8
Codec ID/Info : UTF-8 Plain Text
Duration : 23 min 23 s
Bit rate : 84 b/s
Count of elements : 537
Stream size : 14.5 KiB (0%)
Title : English [SDH]
Language : English
Default : No
Forced : No

Menu
00:00:00.000 : en:Amazon Original
00:00:05.000 : en:Title Sequence
00:00:41.000 : en:The Keychain to My Heart
00:11:54.000 : en:The Big Con
00:23:01.000 : en:End Credits





Costume Quest S01E04


Costume Quest S01E04


Costume Quest S01E04


Costume Quest S01E04


Costume Quest S01E04

All episodes