Featured TV Shows


Counterpart S01E06

Posted By: Tavaz
720p (HD) / WEBRip IMDb
Counterpart S01E06

Counterpart S01E06
WEBRip | MKV | 1280x720 | Spanish | H264 @ 1833 kbps | AC-3 @ 384 kbps | 54 min 42 s | 868 MiB
Subtitles: Spanish
Genre: Drama, Science Fiction

Howard Silk is a lowly cog in a bureaucratic UN agency who is turning the last corner of a life filled with regret when he discovers the agency he works for is guarding a secret: a crossing to a parallel dimension.

counterpart.s01e06.spanish.720p.webrip.x264-fcc.mkv (868.2 MB)
counterpart.s01e06.spanish.720p.webrip.x264-fcc.sample.mkv (22.3 MB)



General
Unique ID : 171222314035625551086008739871970332715 (0x80D037DA4E8F9C8292B14E42B324902B)
Complete name : ./counterpart.s01e06.spanish.720p.webrip.x264-fcc.mkv
Format : Matroska
Format version : Version 4 / Version 2
File size : 868 MiB
Duration : 54 min 42 s
Overall bit rate mode : Variable
Overall bit rate : 2 219 kb/s
Encoded date : UTC 2018-05-21 16:09:36
Writing application : mkvmerge v9.8.0 ('Kuglblids') 32bit
Writing library : libebml v1.3.4 + libmatroska v1.4.5

Video
ID : 1
Format : AVC
Format/Info : Advanced Video Codec
Format profile : High@L3.1
Format settings : CABAC / 5 Ref Frames
Format settings, CABAC : Yes
Format settings, RefFrames : 5 frames
Codec ID : V_MPEG4/ISO/AVC
Duration : 54 min 42 s
Bit rate mode : Variable
Bit rate : 1 833 kb/s
Maximum bit rate : 4 500 kb/s
Width : 1 280 pixels
Height : 720 pixels
Display aspect ratio : 16:9
Frame rate mode : Constant
Frame rate : 23.976 (24000/1001) FPS
Color space : YUV
Chroma subsampling : 4:2:0
Bit depth : 8 bits
Scan type : Progressive
Bits/(Pixel*Frame) : 0.083
Stream size : 717 MiB (83%)
Language : Spanish
Default : Yes
Forced : No
Color range : Limited
Color primaries : BT.709
Transfer characteristics : BT.709
Matrix coefficients : BT.709

Audio
ID : 2
Format : AC-3
Format/Info : Audio Coding 3
Format settings, Endianness : Big
Codec ID : A_AC3
Duration : 54 min 42 s
Bit rate mode : Constant
Bit rate : 384 kb/s
Channel(s) : 6 channels
Channel positions : Front: L C R, Side: L R, LFE
Sampling rate : 48.0 kHz
Frame rate : 31.250 FPS (1536 SPF)
Bit depth : 16 bits
Compression mode : Lossy
Stream size : 150 MiB (17%)
Language : Spanish
Service kind : Complete Main
Default : Yes
Forced : No

Text
ID : 3
Format : UTF-8
Codec ID : S_TEXT/UTF8
Codec ID/Info : UTF-8 Plain Text
Duration : 42 min 23 s
Bit rate : 6 b/s
Count of elements : 67
Stream size : 2.11 KiB (0%)
Language : Spanish
Default : Yes
Forced : Yes





Counterpart S01E06


Counterpart S01E06


Counterpart S01E06


Counterpart S01E06


Counterpart S01E06

All episodes