Featured TV Shows


Crazy Ex-Girlfriend S04E17

Posted By: Tavaz
720p (HD) / WEB-DL IMDb
Crazy Ex-Girlfriend S04E17

Crazy Ex-Girlfriend S04E17
WEB-DL | MKV | 1280x720 | English | H264 @ 5464 kbps | E-AC-3 @ 640 kbps | 41 min 55 s | 1.79 GiB
Subtitles: English
Genre: Comedy, Music


Rebecca Bunch is a successful, driven, and possibly crazy young woman who impulsively gives up everything - her partnership at a prestigious law firm and her upscale apartment in Manhattan - in a desperate attempt to find love and happiness in that exotic hotbed of romance and adventure: suburban West Covina, California.

99cd64dd768b4fa6891d8be5e0425dbf.mkv (1.8 GB)



General
Unique ID : 79019983088551498112490631993510299789 (0x3B72B1F63C8DEA799AE79B462E9F888D)
Complete name : ./99cd64dd768b4fa6891d8be5e0425dbf.mkv
Format : Matroska
Format version : Version 4 / Version 2
File size : 1.79 GiB
Duration : 41 min 55 s
Overall bit rate : 6 106 kb/s
Encoded date : UTC 2019-05-07 18:42:08
Writing application : mkvmerge v19.0.0 ('Brave Captain') 64-bit
Writing library : libebml v1.3.5 + libmatroska v1.4.8

Video
ID : 1
Format : AVC
Format/Info : Advanced Video Codec
Format profile : High@L3.1
Format settings : CABAC / 4 Ref Frames
Format settings, CABAC : Yes
Format settings, RefFrames : 4 frames
Codec ID : V_MPEG4/ISO/AVC
Duration : 41 min 55 s
Bit rate mode : Constant
Bit rate : 5 464 kb/s
Nominal bit rate : 6 000 kb/s
Width : 1 280 pixels
Height : 720 pixels
Display aspect ratio : 16:9
Frame rate mode : Constant
Frame rate : 23.976 (24000/1001) FPS
Color space : YUV
Chroma subsampling : 4:2:0
Bit depth : 8 bits
Scan type : Progressive
Bits/(Pixel*Frame) : 0.247
Stream size : 1.60 GiB (89%)
Default : Yes
Forced : No
Color range : Limited
Color primaries : BT.709
Transfer characteristics : BT.709
Matrix coefficients : BT.709

Audio
ID : 2
Format : E-AC-3
Format/Info : Enhanced Audio Coding 3
Format settings, Endianness : Big
Codec ID : A_EAC3
Duration : 41 min 55 s
Bit rate mode : Constant
Bit rate : 640 kb/s
Channel(s) : 6 channels
Channel positions : Front: L C R, Side: L R, LFE
Sampling rate : 48.0 kHz
Frame rate : 187.500 FPS (256 SPF)
Compression mode : Lossy
Stream size : 192 MiB (10%)
Language : English
Service kind : Complete Main
Default : Yes
Forced : No

Text #1
ID : 3
Format : UTF-8
Codec ID : S_TEXT/UTF8
Codec ID/Info : UTF-8 Plain Text
Duration : 41 min 13 s
Bit rate : 81 b/s
Count of elements : 866
Stream size : 24.5 KiB (0%)
Language : English
Default : No
Forced : No

Text #2
ID : 4
Format : UTF-8
Codec ID : S_TEXT/UTF8
Codec ID/Info : UTF-8 Plain Text
Duration : 41 min 21 s
Bit rate : 84 b/s
Count of elements : 924
Stream size : 25.7 KiB (0%)
Title : SDH
Language : English
Default : No
Forced : No





Crazy Ex-Girlfriend S04E17


Crazy Ex-Girlfriend S04E17


Crazy Ex-Girlfriend S04E17


Crazy Ex-Girlfriend S04E17


Crazy Ex-Girlfriend S04E17

All episodes