Featured TV Shows


Criminal Minds S04E07

Posted By: Tavaz
1080p (FullHD) / WEB-DL IMDb
Criminal Minds S04E07

Criminal Minds S04E07
WEB-DL | MKV | 1920x1080 | Italian / English | H264 @ 8846 kbps | AC-3 @ 384 kbps | 39 min 20 s | 2.64 GiB
Genre: Crime, Drama, Mystery

An elite team of FBI profilers analyze the country's most twisted criminal minds, anticipating their next moves before they strike again. The Behavioral Analysis Unit's most experienced agent is David Rossi, a founding member of the BAU who returns to help the team solve new cases.

Criminal.Minds.14x07.Ventisette.ITA-ENG.1080p.WEBMux.DD5.1.x264-NovaRip.mkv (2.6 GB)



General
Unique ID : 4344295832487941543254402734959810795 (0x344AE524994F0D7B746B1F2ED66D8EB)
Complete name : ./Criminal.Minds.14x07.Ventisette.ITA-ENG.1080p.WEBMux.DD5.1.x264-NovaRip.mkv
Format : Matroska
Format version : Version 2
File size : 2.64 GiB
Duration : 39 min 20 s
Overall bit rate : 9 616 kb/s
Encoded date : UTC 2018-12-08 10:23:52
Writing application : mkvmerge v8.5.2 ('Crosses') 64bit
Writing library : libebml v1.3.3 + libmatroska v1.4.4

Video
ID : 1
Format : AVC
Format/Info : Advanced Video Codec
Format profile : High@L4
Format settings : CABAC / 4 Ref Frames
Format settings, CABAC : Yes
Format settings, RefFrames : 4 frames
Codec ID : V_MPEG4/ISO/AVC
Duration : 39 min 20 s
Bit rate : 8 846 kb/s
Width : 1 920 pixels
Height : 1 080 pixels
Display aspect ratio : 16:9
Frame rate mode : Constant
Frame rate : 25.000 FPS
Original frame rate : 24.000 FPS
Color space : YUV
Chroma subsampling : 4:2:0
Bit depth : 8 bits
Scan type : Progressive
Bits/(Pixel*Frame) : 0.171
Stream size : 2.43 GiB (92%)
Language : English
Default : Yes
Forced : Yes
Color range : Limited
Color primaries : BT.709
Transfer characteristics : BT.709
Matrix coefficients : BT.709

Audio #1
ID : 2
Format : AC-3
Format/Info : Audio Coding 3
Format settings, Endianness : Big
Codec ID : A_AC3
Duration : 39 min 20 s
Bit rate mode : Constant
Bit rate : 384 kb/s
Channel(s) : 6 channels
Channel positions : Front: L C R, Side: L R, LFE
Sampling rate : 48.0 kHz
Frame rate : 31.250 FPS (1536 SPF)
Bit depth : 16 bits
Compression mode : Lossy
Stream size : 108 MiB (4%)
Title : ITA
Language : Italian
Service kind : Complete Main
Default : Yes
Forced : Yes

Audio #2
ID : 3
Format : AC-3
Format/Info : Audio Coding 3
Format settings, Endianness : Big
Codec ID : A_AC3
Duration : 39 min 20 s
Bit rate mode : Constant
Bit rate : 384 kb/s
Channel(s) : 6 channels
Channel positions : Front: L C R, Side: L R, LFE
Sampling rate : 48.0 kHz
Frame rate : 31.250 FPS (1536 SPF)
Bit depth : 16 bits
Compression mode : Lossy
Stream size : 108 MiB (4%)
Title : ENG
Language : English
Service kind : Complete Main
Default : No
Forced : No





Criminal Minds S04E07


Criminal Minds S04E07


Criminal Minds S04E07


Criminal Minds S04E07


Criminal Minds S04E07

All episodes