Index
# A B C D E F G H I J K L M N O P Q R S T U V W X Y Z
Tags
Language
Tags
May 2024
Su Mo Tu We Th Fr Sa
28 29 30 1 2 3 4
5 6 7 8 9 10 11
12 13 14 15 16 17 18
19 20 21 22 23 24 25
26 27 28 29 30 31 1

Featured TV Shows


Criminal Minds S02E23

Posted By: Tavaz
720p (HD) / WEB-DL IMDb
Criminal Minds S02E23

Criminal Minds S02E23
WEB-DL | MKV | 1280x720 | English | H264 @ 3876 kbps | AC-3 @ 384 kbps | 43 min 32 s | 1.32 GiB
Genre: Crime, Drama, Mystery


An elite team of FBI profilers analyze the country's most twisted criminal minds, anticipating their next moves before they strike again. The Behavioral Analysis Unit's most experienced agent is David Rossi, a founding member of the BAU who returns to help the team solve new cases.

190e5345711a45ffa735170b9494aa0e.mkv (1.3 GB)



General
Unique ID : 180867190675951318082195706050399521420 (0x8811C0FC2EBEAAB98800D046263D4A8C)
Complete name : ./190e5345711a45ffa735170b9494aa0e.mkv
Format : Matroska
Format version : Version 2
File size : 1.32 GiB
Duration : 43 min 32 s
Overall bit rate : 4 347 kb/s
Encoded date : UTC 2010-03-25 18:07:43
Writing application : mkvmerge v2.9.8 ('C'est le bon') built on Aug 13 2009 12:49:06
Writing library : libebml v0.7.7 + libmatroska v0.8.1

Video
ID : 1
Format : AVC
Format/Info : Advanced Video Codec
Format profile : High@L3.1
Format settings : 2 Ref Frames
Format settings, CABAC : No
Format settings, RefFrames : 2 frames
Codec ID : V_MPEG4/ISO/AVC
Duration : 43 min 32 s
Bit rate : 3 876 kb/s
Width : 1 280 pixels
Height : 720 pixels
Display aspect ratio : 16:9
Frame rate mode : Constant
Frame rate : 23.976 (24000/1001) FPS
Color space : YUV
Chroma subsampling : 4:2:0
Bit depth : 8 bits
Scan type : Progressive
Bits/(Pixel*Frame) : 0.175
Stream size : 1.18 GiB (89%)
Language : English
Default : Yes
Forced : No
Color range : Limited
Color primaries : BT.709
Transfer characteristics : BT.709
Matrix coefficients : BT.709

Audio
ID : 2
Format : AC-3
Format/Info : Audio Coding 3
Format settings, Endianness : Big
Codec ID : A_AC3
Duration : 43 min 32 s
Bit rate mode : Constant
Bit rate : 384 kb/s
Channel(s) : 6 channels
Channel positions : Front: L C R, Side: L R, LFE
Sampling rate : 48.0 kHz
Frame rate : 31.250 FPS (1536 SPF)
Bit depth : 16 bits
Compression mode : Lossy
Stream size : 120 MiB (9%)
Language : English
Service kind : Complete Main
Default : Yes
Forced : No





Criminal Minds S02E23


Criminal Minds S02E23


Criminal Minds S02E23


Criminal Minds S02E23


Criminal Minds S02E23

All episodes