Featured TV Shows


Criminal Minds S13E04

Posted By: Tavaz
SD / HDTV IMDb
Criminal Minds S13E04

Criminal Minds S13E04
HDTV | AVI | 640x360 | MP4V-ES @ 1002 kbps | MPEG Audio @ 128 kbps | 39 min 37 s | 323 MiB
Genre: Crime, Drama, Mystery

An elite team of FBI profilers analyze the country's most twisted criminal minds, anticipating their next moves before they strike again. The Behavioral Analysis Unit's most experienced agent is David Rossi, a founding member of the BAU who returns to help the team solve new cases.

aa808797178c4282b8915a7a6530cfb4.avi (323.0 MB)



General
Complete name : ./aa808797178c4282b8915a7a6530cfb4.avi
Format : AVI
Format/Info : Audio Video Interleave
File size : 323 MiB
Duration : 39 min 37 s
Overall bit rate : 1 140 kb/s
Writing application : VirtualDubMod 1.5.10.2 (build 2542/release)
Writing library : VirtualDubMod build 2542/release

Video
ID : 0
Format : MPEG-4 Visual
Format profile : Simple@L3
Format settings, BVOP : No
Format settings, QPel : No
Format settings, GMC : No warppoints
Format settings, Matrix : Default (H.263)
Codec ID : XVID
Codec ID/Hint : XviD
Duration : 39 min 37 s
Bit rate : 1 002 kb/s
Width : 640 pixels
Height : 360 pixels
Display aspect ratio : 16:9
Frame rate : 23.976 (24000/1001) FPS
Color space : YUV
Chroma subsampling : 4:2:0
Bit depth : 8 bits
Scan type : Progressive
Compression mode : Lossy
Bits/(Pixel*Frame) : 0.181
Stream size : 284 MiB (88%)
Writing library : XviD 64

Audio
ID : 1
Format : MPEG Audio
Format version : Version 1
Format profile : Layer 3
Format settings : Joint stereo / MS Stereo
Mode : Joint stereo
Mode extension : MS Stereo
Codec ID : 55
Codec ID/Hint : MP3
Duration : 39 min 37 s
Bit rate mode : Constant
Bit rate : 128 kb/s
Channel(s) : 2 channels
Sampling rate : 48.0 kHz
Compression mode : Lossy
Stream size : 36.3 MiB (11%)
Alignment : Aligned on interleaves
Interleave, duration : 42 ms (1.00 video frame)
Interleave, preload duration : 504 ms





Criminal Minds S13E04


Criminal Minds S13E04


Criminal Minds S13E04


Criminal Minds S13E04


Criminal Minds S13E04

All episodes