Featured TV Shows


Criminal Minds S13E04

Posted By: Tavaz
Criminal Minds S13E04

Criminal Minds S13E04
MKV | 720x404 | German | H264 @ 685 kbps | AC-3 @ 192 kbps | 38 min 41 s | 248 MiB
Genre: Crime, Drama, Mystery

An elite team of FBI profilers analyze the country's most twisted criminal minds, anticipating their next moves before they strike again. The Behavioral Analysis Unit's most experienced agent is David Rossi, a founding member of the BAU who returns to help the team solve new cases.

Criminal.Minds.S13E04.Ein.Schatten.in.der.Wueste.GERMAN.DUBBED.WebHDRiP.x264-SOF.mkv (247.6 MB)



General
Unique ID : 175166115636695388398826347869645724063 (0x83C7C448B9302BB1B185C74D3E1A599F)
Complete name : ./Criminal.Minds.S13E04.Ein.Schatten.in.der.Wueste.GERMAN.DUBBED.WebHDRiP.x264-SOF/Criminal.Minds.S13E04.Ein.Schatten.in.der.Wueste.GERMAN.DUBBED.WebHDRiP.x264-SOF.mkv
Format : Matroska
Format version : Version 2
File size : 248 MiB
Duration : 38 min 41 s
Overall bit rate : 895 kb/s
Encoded date : UTC 2018-02-02 10:27:48
Writing application : mkvmerge v5.1.0 ('And so it goes') built on Nov 28 2011 23:58:28
Writing library : libebml v1.2.3 + libmatroska v1.3.0

Video
ID : 1
Format : AVC
Format/Info : Advanced Video Codec
Format profile : High@L3.1
Format settings : CABAC / 5 Ref Frames
Format settings, CABAC : Yes
Format settings, RefFrames : 5 frames
Codec ID : V_MPEG4/ISO/AVC
Duration : 38 min 41 s
Bit rate : 685 kb/s
Width : 720 pixels
Height : 404 pixels
Display aspect ratio : 16:9
Frame rate mode : Constant
Frame rate : 25.000 FPS
Color space : YUV
Chroma subsampling : 4:2:0
Bit depth : 8 bits
Scan type : Progressive
Bits/(Pixel*Frame) : 0.094
Stream size : 190 MiB (77%)
Writing library : x264 core 152 r2851 ba24899
Encoding settings : cabac=1 / ref=5 / deblock=1:-2:-2 / analyse=0x3:0x113 / me=hex / subme=8 / psy=1 / psy_rd=1.00:0.00 / mixed_ref=1 / me_range=16 / chroma_me=1 / trellis=2 / 8x8dct=1 / cqm=0 / deadzone=21,11 / fast_pskip=1 / chroma_qp_offset=-2 / threads=12 / lookahead_threads=2 / sliced_threads=0 / nr=0 / decimate=1 / interlaced=0 / bluray_compat=0 / constrained_intra=0 / bframes=3 / b_pyramid=2 / b_adapt=1 / b_bias=0 / direct=3 / weightb=1 / open_gop=0 / weightp=2 / keyint=250 / keyint_min=25 / scenecut=40 / intra_refresh=0 / rc_lookahead=50 / rc=crf / mbtree=1 / crf=19.0 / qcomp=0.60 / qpmin=0 / qpmax=69 / qpstep=4 / ip_ratio=1.40 / aq=1:1.00
Default : Yes
Forced : No

Audio
ID : 2
Format : AC-3
Format/Info : Audio Coding 3
Format settings, Endianness : Big
Codec ID : A_AC3
Duration : 38 min 41 s
Bit rate mode : Constant
Bit rate : 192 kb/s
Channel(s) : 2 channels
Channel positions : Front: L R
Sampling rate : 48.0 kHz
Frame rate : 31.250 FPS (1536 SPF)
Bit depth : 16 bits
Compression mode : Lossy
Stream size : 53.1 MiB (21%)
Language : German
Service kind : Complete Main
Default : Yes
Forced : No





Criminal Minds S13E04


Criminal Minds S13E04


Criminal Minds S13E04


Criminal Minds S13E04


Criminal Minds S13E04

All episodes