Featured TV Shows


Criminal Minds S13E21

Posted By: Tavaz
SD / HDTV IMDb
Criminal Minds S13E21

Criminal Minds S13E21
HDTV | AVI | 640x360 | MP4V-ES @ 907 kbps | MPEG Audio @ 128 kbps | 39 min 38 s | 296 MiB
Genre: Crime, Drama, Mystery

An elite team of FBI profilers analyze the country's most twisted criminal minds, anticipating their next moves before they strike again. The Behavioral Analysis Unit's most experienced agent is David Rossi, a founding member of the BAU who returns to help the team solve new cases.

5c97936f056944069be12c3104ac69f7.avi (296.2 MB)



General
Complete name : ./5c97936f056944069be12c3104ac69f7.avi
Format : AVI
Format/Info : Audio Video Interleave
File size : 296 MiB
Duration : 39 min 38 s
Overall bit rate : 1 045 kb/s
Writing application : VirtualDubMod 1.5.10.2 (build 2542/release)
Writing library : VirtualDubMod build 2542/release

Video
ID : 0
Format : MPEG-4 Visual
Format profile : Simple@L3
Format settings, BVOP : No
Format settings, QPel : No
Format settings, GMC : No warppoints
Format settings, Matrix : Default (H.263)
Codec ID : XVID
Codec ID/Hint : XviD
Duration : 39 min 38 s
Bit rate : 907 kb/s
Width : 640 pixels
Height : 360 pixels
Display aspect ratio : 16:9
Frame rate : 23.976 (24000/1001) FPS
Color space : YUV
Chroma subsampling : 4:2:0
Bit depth : 8 bits
Scan type : Progressive
Compression mode : Lossy
Bits/(Pixel*Frame) : 0.164
Stream size : 257 MiB (87%)
Writing library : XviD 64

Audio
ID : 1
Format : MPEG Audio
Format version : Version 1
Format profile : Layer 3
Format settings : Joint stereo / MS Stereo
Mode : Joint stereo
Mode extension : MS Stereo
Codec ID : 55
Codec ID/Hint : MP3
Duration : 39 min 38 s
Bit rate mode : Constant
Bit rate : 128 kb/s
Channel(s) : 2 channels
Sampling rate : 48.0 kHz
Compression mode : Lossy
Stream size : 36.3 MiB (12%)
Alignment : Aligned on interleaves
Interleave, duration : 42 ms (1.00 video frame)
Interleave, preload duration : 504 ms





Criminal Minds S13E21


Criminal Minds S13E21


Criminal Minds S13E21


Criminal Minds S13E21


Criminal Minds S13E21

All episodes