Featured TV Shows


Criminal Minds S14E01

Posted By: Tavaz
SD / WEBRip IMDb
Criminal Minds S14E01

Criminal Minds S14E01
WEB-DL | MKV | 720x404 | German / English | H264 @ 740 kbps | AC-3 @ 192 kbps | 39 min 59 s | 377 MiB
Genre: Krimi, Drama, Mystery

Criminal Minds ist eine US-amerikanische Fernsehserie, die erstmals am 22. September 2005 vom Sender CBS ausgestrahlt wurde. In der Serie wird die Arbeit des FBI im Bereich der operativen Fallanalyse („Profiling“) durch die Behavioral Analysis Unit (BAU) (engl. für „Verhaltensanalyseeinheit“) aus Quantico (Virginia) dargestellt. Criminal Minds unterscheidet sich von anderen Serien durch die Fokussierung auf den jeweiligen Kriminellen und weniger auf das Verbrechen im Allgemeinen.

CrMi S14E01.mkv (377.2 MB)



General
Unique ID : 303205976960660635885632533981107287903 (0xE41B58D741FA760EB40C4C3DEBD7775F)
Complete name : ./CrMi S14E01 GermanDL/CrMi S14E01.mkv
Format : Matroska
Format version : Version 4 / Version 2
File size : 377 MiB
Duration : 39 min 59 s
Overall bit rate : 1 319 kb/s
Encoded date : UTC 2018-12-29 22:27:20
Writing application : mkvmerge v26.0.0 ('In The Game') 64-bit
Writing library : libebml v1.3.6 + libmatroska v1.4.9

Video
ID : 1
Format : AVC
Format/Info : Advanced Video Codec
Format profile : High@L3
Format settings : CABAC / 5 Ref Frames
Format settings, CABAC : Yes
Format settings, RefFrames : 5 frames
Codec ID : V_MPEG4/ISO/AVC
Duration : 39 min 59 s
Bit rate : 741 kb/s
Width : 720 pixels
Height : 404 pixels
Display aspect ratio : 16:9
Frame rate mode : Constant
Frame rate : 25.000 FPS
Color space : YUV
Chroma subsampling : 4:2:0
Bit depth : 8 bits
Scan type : Progressive
Bits/(Pixel*Frame) : 0.102
Stream size : 212 MiB (56%)
Writing library : x264 core 155 r2901 7d0ff22
Encoding settings : cabac=1 / ref=5 / deblock=1:-1:-1 / analyse=0x3:0x113 / me=hex / subme=8 / psy=1 / psy_rd=1.00:0.15 / mixed_ref=1 / me_range=16 / chroma_me=1 / trellis=2 / 8x8dct=1 / cqm=0 / deadzone=21,11 / fast_pskip=1 / chroma_qp_offset=-3 / threads=6 / lookahead_threads=1 / sliced_threads=0 / nr=0 / decimate=1 / interlaced=0 / bluray_compat=0 / constrained_intra=0 / bframes=3 / b_pyramid=2 / b_adapt=1 / b_bias=0 / direct=3 / weightb=1 / open_gop=0 / weightp=2 / keyint=250 / keyint_min=25 / scenecut=40 / intra_refresh=0 / rc_lookahead=50 / rc=crf / mbtree=1 / crf=19.0 / qcomp=0.60 / qpmin=0 / qpmax=69 / qpstep=4 / ip_ratio=1.40 / aq=1:1.00
Language : German
Default : Yes
Forced : No

Audio #1
ID : 2
Format : AC-3
Format/Info : Audio Coding 3
Format settings, Endianness : Big
Codec ID : A_AC3
Duration : 39 min 59 s
Bit rate mode : Constant
Bit rate : 192 kb/s
Channel(s) : 2 channels
Channel positions : Front: L R
Sampling rate : 48.0 kHz
Frame rate : 31.250 FPS (1536 SPF)
Bit depth : 16 bits
Compression mode : Lossy
Stream size : 54.9 MiB (15%)
Language : German
Service kind : Complete Main
Default : Yes
Forced : No

Audio #2
ID : 3
Format : AC-3
Format/Info : Audio Coding 3
Format settings, Endianness : Big
Codec ID : A_AC3
Duration : 39 min 59 s
Bit rate mode : Constant
Bit rate : 384 kb/s
Channel(s) : 6 channels
Channel positions : Front: L C R, Side: L R, LFE
Sampling rate : 48.0 kHz
Frame rate : 31.250 FPS (1536 SPF)
Bit depth : 16 bits
Compression mode : Lossy
Stream size : 110 MiB (29%)
Language : English
Service kind : Complete Main
Default : No
Forced : No





Criminal Minds S14E01


Criminal Minds S14E01


Criminal Minds S14E01


Criminal Minds S14E01


Criminal Minds S14E01

All episodes