Featured TV Shows


Criminal Minds S14E07

Posted By: Tavaz
SD / HDTV IMDb
Criminal Minds S14E07

Criminal Minds S14E07
HDTV | MKV | 720x402 | English | H264 @ 874 kbps | AAC @ 121 kbps | 40 min 15 s | 287 MiB
Genre: Crime, Drama, Mystery

An elite team of FBI profilers analyze the country's most twisted criminal minds, anticipating their next moves before they strike again. The Behavioral Analysis Unit's most experienced agent is David Rossi, a founding member of the BAU who returns to help the team solve new cases.

6e43dee9f4724c4ca018aea0ba23a5fb.mkv (287.5 MB)



General
Unique ID : 277148542393091365577780899743065357677 (0xD080DE2086C0130838A2083C641EBD6D)
Complete name : ./6e43dee9f4724c4ca018aea0ba23a5fb.mkv
Format : Matroska
Format version : Version 4 / Version 2
File size : 287 MiB
Duration : 40 min 15 s
Overall bit rate : 998 kb/s
Encoded date : UTC 2018-11-15 02:01:59
Writing application : mkvmerge v8.8.0 ('Wind at my back') 64bit
Writing library : libebml v1.3.3 + libmatroska v1.4.4

Video
ID : 1
Format : AVC
Format/Info : Advanced Video Codec
Format profile : High@L3.1
Format settings : CABAC / 5 Ref Frames
Format settings, CABAC : Yes
Format settings, RefFrames : 5 frames
Codec ID : V_MPEG4/ISO/AVC
Duration : 40 min 15 s
Bit rate : 874 kb/s
Width : 720 pixels
Height : 402 pixels
Display aspect ratio : 16:9
Frame rate mode : Constant
Frame rate : 23.976 (24000/1001) FPS
Color space : YUV
Chroma subsampling : 4:2:0
Bit depth : 8 bits
Scan type : Progressive
Bits/(Pixel*Frame) : 0.126
Stream size : 252 MiB (88%)
Writing library : x264 core 157 r2935 545de2f
Encoding settings : cabac=1 / ref=5 / deblock=1:0:0 / analyse=0x3:0x113 / me=hex / subme=8 / psy=1 / psy_rd=1.00:0.00 / mixed_ref=1 / me_range=16 / chroma_me=1 / trellis=2 / 8x8dct=1 / cqm=0 / deadzone=21,11 / fast_pskip=1 / chroma_qp_offset=-2 / threads=13 / lookahead_threads=2 / sliced_threads=0 / nr=0 / decimate=1 / interlaced=0 / bluray_compat=0 / constrained_intra=0 / bframes=3 / b_pyramid=2 / b_adapt=1 / b_bias=0 / direct=3 / weightb=1 / open_gop=0 / weightp=2 / keyint=250 / keyint_min=23 / scenecut=40 / intra_refresh=0 / rc_lookahead=50 / rc=crf / mbtree=1 / crf=19.0 / qcomp=0.60 / qpmin=0 / qpmax=69 / qpstep=4 / ip_ratio=1.40 / aq=1:1.00
Default : Yes
Forced : No
Color range : Limited
Matrix coefficients : BT.709

Audio
ID : 2
Format : AAC
Format/Info : Advanced Audio Codec
Format profile : LC
Codec ID : A_AAC-2
Duration : 40 min 15 s
Bit rate : 122 kb/s
Channel(s) : 2 channels
Channel positions : Front: L R
Sampling rate : 48.0 kHz
Frame rate : 46.875 FPS (1024 SPF)
Compression mode : Lossy
Delay relative to video : 20 ms
Stream size : 35.1 MiB (12%)
Default : Yes
Forced : No





Criminal Minds S14E07


Criminal Minds S14E07


Criminal Minds S14E07


Criminal Minds S14E07


Criminal Minds S14E07

All episodes