Featured TV Shows


Criminal Minds S14E10

Posted By: Tavaz
1080p (FullHD) / WEBRip IMDb
Criminal Minds S14E10

Criminal Minds S14E10
WEBRip | MKV | 1920x1080 | English | H264 @ 13316 kbps | E-AC-3 @ 640 kbps | 43 min 21 s | 4.23 GiB
Subtitles: English
Genre: Crime, Drama, Mystery

An elite team of FBI profilers analyze the country's most twisted criminal minds, anticipating their next moves before they strike again. The Behavioral Analysis Unit's most experienced agent is David Rossi, a founding member of the BAU who returns to help the team solve new cases.

ddbdee7656054484b7af4b16c44398df.mkv (4.2 GB)



General
Unique ID : 49194270344772258459013045406017998062 (0x250278CA2C7FF5F05678B96689334CEE)
Complete name : ./ddbdee7656054484b7af4b16c44398df.mkv
Format : Matroska
Format version : Version 4 / Version 2
File size : 4.23 GiB
Duration : 43 min 21 s
Overall bit rate : 14.0 Mb/s
Encoded date : UTC 2018-12-13 07:00:58
Writing application : mkvmerge v28.2.0 ('The Awakening') 64-bit
Writing library : libebml v1.3.6 + libmatroska v1.4.9

Video
ID : 1
Format : AVC
Format/Info : Advanced Video Codec
Format profile : High@L4
Format settings : CABAC / 4 Ref Frames
Format settings, CABAC : Yes
Format settings, RefFrames : 4 frames
Codec ID : V_MPEG4/ISO/AVC
Duration : 43 min 21 s
Bit rate : 13.3 Mb/s
Width : 1 920 pixels
Height : 1 080 pixels
Display aspect ratio : 16:9
Frame rate mode : Constant
Frame rate : 24.000 FPS
Color space : YUV
Chroma subsampling : 4:2:0
Bit depth : 8 bits
Scan type : Progressive
Bits/(Pixel*Frame) : 0.268
Stream size : 4.03 GiB (95%)
Language : English
Default : Yes
Forced : No
Color range : Limited
Color primaries : BT.709
Transfer characteristics : BT.709
Matrix coefficients : BT.709

Audio
ID : 2
Format : E-AC-3
Format/Info : Enhanced Audio Coding 3
Format settings, Endianness : Big
Codec ID : A_EAC3
Duration : 43 min 21 s
Bit rate mode : Constant
Bit rate : 640 kb/s
Channel(s) : 6 channels
Channel positions : Front: L C R, Side: L R, LFE
Sampling rate : 48.0 kHz
Frame rate : 187.500 FPS (256 SPF)
Compression mode : Lossy
Stream size : 198 MiB (5%)
Language : English
Service kind : Complete Main
Default : Yes
Forced : No

Text
ID : 3
Format : UTF-8
Codec ID : S_TEXT/UTF8
Codec ID/Info : UTF-8 Plain Text
Duration : 42 min 54 s
Bit rate : 95 b/s
Count of elements : 910
Stream size : 30.1 KiB (0%)
Title : English
Language : English
Default : No
Forced : No





Criminal Minds S14E10


Criminal Minds S14E10


Criminal Minds S14E10


Criminal Minds S14E10


Criminal Minds S14E10

All episodes