Featured TV Shows


Criminal Minds S14E10

Posted By: Tavaz
Criminal Minds S14E10

Criminal Minds S14E10

An elite team of FBI profilers analyze the country's most twisted criminal minds, anticipating their next moves before they strike again. The Behavioral Analysis Unit's most experienced agent is David Rossi, a founding member of the BAU who returns to help the team solve new cases.

44630da9af4a4a9dbe2a3c11dcbd5584.avi (334.8 MB)



General
Complete name : ./44630da9af4a4a9dbe2a3c11dcbd5584.avi
Format : AVI
Format/Info : Audio Video Interleave
File size : 335 MiB
Duration : 42 min 32 s
Overall bit rate : 1 100 kb/s
Writing application : Lavf57.81.100

Video
ID : 0
Format : xvid
Codec ID : xvid
Duration : 42 min 32 s
Bit rate : 959 kb/s
Width : 640 pixels
Height : 360 pixels
Display aspect ratio : 16:9
Frame rate : 23.976 (24000/1001) FPS
Scan type : Progressive
Bits/(Pixel*Frame) : 0.174
Stream size : 292 MiB (87%)

Audio
ID : 1
Format : MPEG Audio
Format version : Version 1
Format profile : Layer 3
Format settings : Joint stereo / MS Stereo
Mode : Joint stereo
Mode extension : MS Stereo
Codec ID : 55
Codec ID/Hint : MP3
Duration : 42 min 32 s
Bit rate mode : Constant
Bit rate : 128 kb/s
Channel(s) : 2 channels
Sampling rate : 48.0 kHz
Compression mode : Lossy
Stream size : 39.0 MiB (12%)
Alignment : Aligned on interleaves
Interleave, duration : 24 ms (0.58 video frame)
Interleave, preload duration : 24 ms





Criminal Minds S14E10


Criminal Minds S14E10


Criminal Minds S14E10


Criminal Minds S14E10


Criminal Minds S14E10

All episodes