Featured TV Shows


Criminal Minds S14E11

Posted By: Tavaz
SD / HDTV IMDb
Criminal Minds S14E11

Criminal Minds S14E11
HDTV | MKV | 720x404 | English | H264 @ 550 kbps | AAC @ 110 kbps | 39 min 46 s | 189 MiB
Subtitles: English
Genre: Crime, Drama, Mystery

An elite team of FBI profilers analyze the country's most twisted criminal minds, anticipating their next moves before they strike again. The Behavioral Analysis Unit's most experienced agent is David Rossi, a founding member of the BAU who returns to help the team solve new cases.

db467aac5e144db5bf44e137a74bc648.mkv (188.8 MB)



General
Unique ID : 284467405535816042630075418416757777380 (0xD6026DF096F6D99482A7328A42B6A3E4)
Complete name : ./db467aac5e144db5bf44e137a74bc648.mkv
Format : Matroska
Format version : Version 4 / Version 2
File size : 189 MiB
Duration : 39 min 46 s
Overall bit rate : 664 kb/s
Movie name : Criminal.Minds.S14E11.HDTV.x264-LucidTV
Encoded date : UTC 2019-01-03 04:07:47
Writing application : mkvmerge v24.0.0 ('Beyond The Pale') 64-bit
Writing library : libebml v1.3.6 + libmatroska v1.4.9

Video
ID : 1
Format : AVC
Format/Info : Advanced Video Codec
Format profile : High@L3.1
Format settings : CABAC / 5 Ref Frames
Format settings, CABAC : Yes
Format settings, RefFrames : 5 frames
Codec ID : V_MPEG4/ISO/AVC
Duration : 39 min 46 s
Bit rate : 550 kb/s
Width : 720 pixels
Height : 404 pixels
Display aspect ratio : 16:9
Frame rate mode : Constant
Frame rate : 23.976 (24000/1001) FPS
Color space : YUV
Chroma subsampling : 4:2:0
Bit depth : 8 bits
Scan type : Progressive
Bits/(Pixel*Frame) : 0.079
Stream size : 157 MiB (83%)
Writing library : x264 core 157 r2932 303c484
Encoding settings : cabac=1 / ref=5 / deblock=1:0:0 / analyse=0x3:0x113 / me=hex / subme=8 / psy=1 / psy_rd=1.00:0.00 / mixed_ref=1 / me_range=16 / chroma_me=1 / trellis=2 / 8x8dct=1 / cqm=0 / deadzone=21,11 / fast_pskip=1 / chroma_qp_offset=-2 / threads=13 / lookahead_threads=2 / sliced_threads=0 / nr=0 / decimate=1 / interlaced=0 / bluray_compat=0 / constrained_intra=0 / bframes=3 / b_pyramid=2 / b_adapt=1 / b_bias=0 / direct=3 / weightb=1 / open_gop=0 / weightp=2 / keyint=250 / keyint_min=23 / scenecut=40 / intra_refresh=0 / rc_lookahead=50 / rc=crf / mbtree=1 / crf=19.0 / qcomp=0.60 / qpmin=0 / qpmax=69 / qpstep=4 / ip_ratio=1.40 / aq=1:1.00
Language : English
Default : Yes
Forced : No
Color range : Limited
Matrix coefficients : BT.709

Audio
ID : 2
Format : AAC
Format/Info : Advanced Audio Codec
Format profile : LC
Codec ID : A_AAC-2
Duration : 39 min 46 s
Bit rate : 111 kb/s
Channel(s) : 2 channels
Channel positions : Front: L R
Sampling rate : 48.0 kHz
Frame rate : 46.875 FPS (1024 SPF)
Compression mode : Lossy
Delay relative to video : 20 ms
Stream size : 31.6 MiB (17%)
Language : English
Default : Yes
Forced : No

Text
ID : 3
Format : UTF-8
Codec ID : S_TEXT/UTF8
Codec ID/Info : UTF-8 Plain Text
Duration : 39 min 40 s
Bit rate : 128 b/s
Count of elements : 891
Stream size : 37.4 KiB (0%)
Language : English
Default : No
Forced : No





Criminal Minds S14E11


Criminal Minds S14E11


Criminal Minds S14E11


Criminal Minds S14E11


Criminal Minds S14E11

All episodes