Featured TV Shows


Criminal Minds S14E15

Posted By: Tavaz
1080p (FullHD) / WEBRip IMDb
Criminal Minds S14E15

Criminal Minds S14E15
WEBRip | MKV | 1920x1080 | English | H264 @ 13365 kbps | E-AC-3 @ 640 kbps | 43 min 5 s | 4.22 GiB
Subtitles: English
Genre: Crime, Drama, Mystery

An elite team of FBI profilers analyze the country's most twisted criminal minds, anticipating their next moves before they strike again. The Behavioral Analysis Unit's most experienced agent is David Rossi, a founding member of the BAU who returns to help the team solve new cases.

badcbca9396b435e9289bd26a972caa8.mkv (4.2 GB)



General
Unique ID : 76453367016639439482465328039196090289 (0x39846204FDB540E774DA172BEDF7DFB1)
Complete name : ./badcbca9396b435e9289bd26a972caa8.mkv
Format : Matroska
Format version : Version 4 / Version 2
File size : 4.22 GiB
Duration : 43 min 5 s
Overall bit rate : 14.0 Mb/s
Encoded date : UTC 2019-02-07 07:00:57
Writing application : mkvmerge v30.1.0 ('Forever And More') 64-bit
Writing library : libebml v1.3.6 + libmatroska v1.4.9

Video
ID : 1
Format : AVC
Format/Info : Advanced Video Codec
Format profile : High@L4
Format settings : CABAC / 4 Ref Frames
Format settings, CABAC : Yes
Format settings, RefFrames : 4 frames
Codec ID : V_MPEG4/ISO/AVC
Duration : 43 min 5 s
Bit rate : 13.4 Mb/s
Width : 1 920 pixels
Height : 1 080 pixels
Display aspect ratio : 16:9
Frame rate mode : Constant
Frame rate : 24.000 FPS
Color space : YUV
Chroma subsampling : 4:2:0
Bit depth : 8 bits
Scan type : Progressive
Bits/(Pixel*Frame) : 0.269
Stream size : 4.02 GiB (95%)
Language : English
Default : Yes
Forced : No
Color range : Limited
Color primaries : BT.709
Transfer characteristics : BT.709
Matrix coefficients : BT.709

Audio
ID : 2
Format : E-AC-3
Format/Info : Enhanced Audio Coding 3
Format settings, Endianness : Big
Codec ID : A_EAC3
Duration : 43 min 5 s
Bit rate mode : Constant
Bit rate : 640 kb/s
Channel(s) : 6 channels
Channel positions : Front: L C R, Side: L R, LFE
Sampling rate : 48.0 kHz
Frame rate : 187.500 FPS (256 SPF)
Compression mode : Lossy
Stream size : 197 MiB (5%)
Language : English
Service kind : Complete Main
Default : Yes
Forced : No

Text
ID : 3
Format : UTF-8
Codec ID : S_TEXT/UTF8
Codec ID/Info : UTF-8 Plain Text
Duration : 42 min 42 s
Bit rate : 84 b/s
Count of elements : 860
Stream size : 26.3 KiB (0%)
Title : English
Language : English
Default : No
Forced : No





Criminal Minds S14E15


Criminal Minds S14E15


Criminal Minds S14E15


Criminal Minds S14E15


Criminal Minds S14E15

All episodes