Featured TV Shows


Criminal Minds S15E09

Posted By: Tavaz
1080p (FullHD) / WEB-DL IMDb
Criminal Minds S15E09

Criminal Minds S15E09
WEB-DL | MKV | 1920x1080 | English | H264 @ 12684 kbps | E-AC-3 @ 640 kbps | 43 min 2 s | 4.01 GiB
Subtitles: English
Genre: Crime, Drama, Mystery


An elite team of FBI profilers analyze the country's most twisted criminal minds, anticipating their next moves before they strike again. The Behavioral Analysis Unit's most experienced agent is David Rossi, a founding member of the BAU who returns to help the team solve new cases.

7c674fd613894fb9bfdaf3d004649b5b.mkv (4.0 GB)



General
Unique ID : 53332002276733614185669512794604326102 (0x281F5EB97E0BFA4144A447EB6EFC4CD6)
Complete name : ./7c674fd613894fb9bfdaf3d004649b5b.mkv
Format : Matroska
Format version : Version 4 / Version 2
File size : 4.01 GiB
Duration : 43 min 2 s
Overall bit rate : 13.3 Mb/s
Encoded date : UTC 2020-02-20 10:38:05
Writing application : mkvmerge v19.0.0 ('Brave Captain') 64-bit
Writing library : libebml v1.3.5 + libmatroska v1.4.8

Video
ID : 1
Format : AVC
Format/Info : Advanced Video Codec
Format profile : High@L4
Format settings : CABAC / 4 Ref Frames
Format settings, CABAC : Yes
Format settings, RefFrames : 4 frames
Codec ID : V_MPEG4/ISO/AVC
Duration : 43 min 2 s
Bit rate : 12.7 Mb/s
Width : 1 920 pixels
Height : 1 080 pixels
Display aspect ratio : 16:9
Frame rate mode : Constant
Frame rate : 24.000 FPS
Color space : YUV
Chroma subsampling : 4:2:0
Bit depth : 8 bits
Scan type : Progressive
Bits/(Pixel*Frame) : 0.255
Stream size : 3.81 GiB (95%)
Default : Yes
Forced : No
Color range : Limited
Color primaries : BT.709
Transfer characteristics : BT.709
Matrix coefficients : BT.709

Audio
ID : 2
Format : E-AC-3
Format/Info : Enhanced Audio Coding 3
Format settings, Endianness : Big
Codec ID : A_EAC3
Duration : 43 min 2 s
Bit rate mode : Constant
Bit rate : 640 kb/s
Channel(s) : 6 channels
Channel positions : Front: L C R, Side: L R, LFE
Sampling rate : 48.0 kHz
Frame rate : 187.500 FPS (256 SPF)
Compression mode : Lossy
Stream size : 197 MiB (5%)
Language : English
Service kind : Complete Main
Default : Yes
Forced : No

Text
ID : 3
Format : UTF-8
Codec ID : S_TEXT/UTF8
Codec ID/Info : UTF-8 Plain Text
Duration : 42 min 19 s
Bit rate : 82 b/s
Count of elements : 714
Stream size : 25.6 KiB (0%)
Title : SDH
Language : English
Default : No
Forced : No





Criminal Minds S15E09


Criminal Minds S15E09


Criminal Minds S15E09


Criminal Minds S15E09


Criminal Minds S15E09

All episodes