Index
# A B C D E F G H I J K L M N O P Q R S T U V W Y Z
Tags
Language
Tags

Featured TV Shows


Criminal: UK S02E01

Posted By:
1080p (FullHD) / WEB-DL IMDb
Criminal: UK S02E01

Criminal: UK S02E01
WEB-DL | MKV | 1920x1080 | English | H264 @ 6122 kbps | E-AC-3 @ 768 kbps | 47 min 8 s | 2.27 GiB
Subtitles: Nederlands
Genre: Кримінал, Драма


Within the walls of an interrogation room and with time running out, London investigators go after three suspects, each accused of a grievous crime.

)1( )2( H.1.5PDD.LD-BEW.FN.p0801.20E20S.KU.lanimirC.mkv (1.6 GB)
)1( )3( H.1.5PDD.LD-BEW.FN.p0801.30E20S.KU.lanimirC.mkv (1.7 GB)
)1( )4( H.1.5PDD.LD-BEW.FN.p0801.40E20S.KU.lanimirC.mkv (2.3 GB)
)1( )1( H.1.5PDD.LD-BEW.FN.p0801.10E20S.KU.lanimirC.mkv (1.5 GB)



General
Unique ID : 199556094749912941526830505383198282159 (0x96211B18BFA3045A6DFCADA0072D51AF)
Complete name : ./%$sqJo#i}D^bNh%~zaBe)c6$5QPUd1SYvnL;O'&9I.02umgsqJo#i}D^bNh%~zaBe)c6$%$$5QPUd1SYvnL;O'&9I.02umg/)1( )4( H.1.5PDD.LD-BEW.FN.p0801.40E20S.KU.lanimirC.mkv
Format : Matroska
Format version : Version 4 / Version 2
File size : 2.27 GiB
Duration : 47 min 8 s
Overall bit rate mode : Variable
Overall bit rate : 6 892 kb/s
Encoded date : UTC 2020-09-19 09:52:54
Writing application : mkvmerge v42.0.0 ('Overtime') 64-bit
Writing library : libebml v1.3.10 + libmatroska v1.5.2

Video
ID : 1
Format : AVC
Format/Info : Advanced Video Codec
Format profile : High@L4
Format settings : CABAC / 4 Ref Frames
Format settings, CABAC : Yes
Format settings, RefFrames : 4 frames
Codec ID : V_MPEG4/ISO/AVC
Duration : 47 min 8 s
Bit rate mode : Variable
Bit rate : 6 123 kb/s
Maximum bit rate : 20.0 Mb/s
Width : 1 920 pixels
Height : 1 080 pixels
Display aspect ratio : 16:9
Frame rate mode : Constant
Frame rate : 25.000 FPS
Color space : YUV
Chroma subsampling : 4:2:0
Bit depth : 8 bits
Scan type : Progressive
Bits/(Pixel*Frame) : 0.118
Stream size : 2.02 GiB (89%)
Writing library : x264 core 148 r2722 1b0121b
Encoding settings : cabac=1 / ref=4 / deblock=1:0:0 / analyse=0x3:0x111 / me=umh / subme=10 / psy=1 / psy_rd=1.00:0.00 / mixed_ref=1 / me_range=120 / chroma_me=1 / trellis=2 / 8x8dct=1 / cqm=0 / deadzone=21,11 / fast_pskip=1 / chroma_qp_offset=-2 / threads=6 / lookahead_threads=1 / sliced_threads=0 / nr=0 / decimate=1 / interlaced=0 / bluray_compat=0 / stitchable=1 / constrained_intra=0 / bframes=16 / b_pyramid=2 / b_adapt=2 / b_bias=0 / direct=3 / weightb=1 / open_gop=0 / weightp=2 / keyint=250 / keyint_min=126 / scenecut=0 / intra_refresh=0 / rc_lookahead=250 / rc=crf / mbtree=1 / crf=16.0 / qcomp=0.50 / qpmin=6 / qpmax=51 / qpstep=4 / vbv_maxrate=20000 / vbv_bufsize=25000 / crf_max=0.0 / nal_hrd=vbr / filler=0 / ip_ratio=1.40 / aq=1:0.80
Default : Yes
Forced : No

Audio
ID : 2
Format : E-AC-3
Format/Info : Enhanced Audio Coding 3
Format profile : E-AC-3+Atmos / E-AC-3
Format settings, Endianness : Big
Codec ID : A_EAC3
Duration : 47 min 8 s
Bit rate mode : Constant
Bit rate : 768 kb/s
Channel(s) : 15 objects / 6 channels
Channel positions : 15 objects / Front: L C R, Side: L R, LFE
Sampling rate : 48.0 kHz
Frame rate : 187.500 FPS (256 SPF)
Compression mode : Lossy
Stream size : 259 MiB (11%)
Language : English
Service kind : Complete Main
Default : Yes
Forced : No

Text
ID : 3
Format : UTF-8
Codec ID : S_TEXT/UTF8
Codec ID/Info : UTF-8 Plain Text
Duration : 46 min 15 s
Bit rate : 59 b/s
Count of elements : 568
Stream size : 20.0 KiB (0%)
Language : Dutch
Default : No
Forced : No





Criminal: UK S02E01


Criminal: UK S02E01


Criminal: UK S02E01


Criminal: UK S02E01


Criminal: UK S02E01

All episodes