Featured TV Shows


Curb Your Enthusiasm S05E09

Posted By: Tavaz
1080p (FullHD) / WEB-DL IMDb
Curb Your Enthusiasm S05E09

Curb Your Enthusiasm S05E09
WEB-DL | MKV | 1920x1080 | English | H264 @ 13829 kbps | E-AC-3 @ 224 kbps | 28 min 44 s | 2.82 GiB
Subtitles: English
Genre: Comedy

The off-kilter, unscripted comic vision of Larry David, who plays himself in a parallel universe in which he can't seem to do anything right, and, by his standards, neither can anyone else.

22900095eb9a408a8af76d52f4b8c72f.mkv (2.8 GB)



General
Unique ID : 213929901367453664604753757131813911634 (0xA0F1667A585B1D77B9B83412449F7C52)
Complete name : ./22900095eb9a408a8af76d52f4b8c72f.mkv
Format : Matroska
Format version : Version 4 / Version 2
File size : 2.82 GiB
Duration : 28 min 44 s
Overall bit rate mode : Variable
Overall bit rate : 14.1 Mb/s
Encoded date : UTC 2017-08-20 00:17:39
Writing application : mkvmerge v13.0.0 ('The Juggler') 64bit
Writing library : libebml v1.3.4 + libmatroska v1.4.5

Video
ID : 1
Format : AVC
Format/Info : Advanced Video Codec
Format profile : High@L4
Format settings : CABAC / 4 Ref Frames
Format settings, CABAC : Yes
Format settings, RefFrames : 4 frames
Codec ID : V_MPEG4/ISO/AVC
Duration : 28 min 44 s
Bit rate mode : Variable
Bit rate : 13.8 Mb/s
Maximum bit rate : 15.0 Mb/s
Width : 1 920 pixels
Height : 1 080 pixels
Display aspect ratio : 16:9
Frame rate mode : Constant
Frame rate : 29.970 (30000/1001) FPS
Color space : YUV
Chroma subsampling : 4:2:0
Bit depth : 8 bits
Scan type : Progressive
Bits/(Pixel*Frame) : 0.223
Stream size : 2.78 GiB (98%)
Default : Yes
Forced : No
Color range : Limited
Color primaries : BT.709
Transfer characteristics : BT.709
Matrix coefficients : BT.709

Audio
ID : 2
Format : E-AC-3
Format/Info : Enhanced Audio Coding 3
Format settings, Endianness : Big
Codec ID : A_EAC3
Duration : 28 min 44 s
Bit rate mode : Constant
Bit rate : 224 kb/s
Channel(s) : 2 channels
Channel positions : Front: L R
Sampling rate : 48.0 kHz
Frame rate : 187.500 FPS (256 SPF)
Compression mode : Lossy
Stream size : 46.1 MiB (2%)
Language : English
Service kind : Complete Main
Default : Yes
Forced : No

Text
ID : 3
Format : UTF-8
Codec ID : S_TEXT/UTF8
Codec ID/Info : UTF-8 Plain Text
Duration : 27 min 34 s
Bit rate : 103 b/s
Count of elements : 574
Stream size : 21.0 KiB (0%)
Language : English
Default : No
Forced : No

Menu
00:00:00.000 : en:Studio Logo
00:00:05.000 : en:Title Sequence
00:00:12.000 : en:Cheryl asks Larry to apologize
00:01:06.000 : en:Larry gets cold on the beach
00:05:55.000 : en:Cheryl scolds Larry over the jacket
00:07:31.000 : en:Sung admires Susie's dog
00:09:37.000 : en:Larry notices a dented car
00:11:57.000 : en:Larry loses it at the vet
00:13:02.000 : en:Larry's sensitivity is rewarded
00:16:10.000 : en:Oscar goes missing
00:17:39.000 : en:Larry pays his debt
00:20:18.000 : en:Larry learns where his money went
00:24:08.000 : en:Larry interrupts the wedding
00:25:19.000 : en:Larry causes a panic
00:26:20.000 : en:Larry finds Oscar
00:27:31.000 : en:End Credits





Curb Your Enthusiasm S05E09


Curb Your Enthusiasm S05E09


Curb Your Enthusiasm S05E09


Curb Your Enthusiasm S05E09


Curb Your Enthusiasm S05E09

All episodes