Featured TV Shows


DC Super Hero Girls S01E29

Posted By: Tavaz
1080p (FullHD) / WEB-DL IMDb
DC Super Hero Girls S01E29

DC Super Hero Girls S01E29
WEB-DL | MKV | 1920x1080 | English | H264 @ 4081 kbps | E-AC-3 @ 640 kbps | 11 min 23 s | 385 MiB
Subtitles: English
Genre: Animation


At Super Hero High, iconic Super Heroes like Wonder Woman, Supergirl, Batgirl, Harley Quinn, Bumblebee, Poison Ivy, and Katana navigate all the twists and turns of high school. United by friendship, the DC Super Hero Girls empower kids to shine with confidence and courage, especially while they combat those overwhelming, exciting, and awesomely awkward moments of growing up (sometimes super powers can be super stressful!).

736554c1e06844baa8e9077999357881.mkv (385.0 MB)



General
Unique ID : 26969826608099357768477917284947248662 (0x144A331D4EB892485A068DFB756CC616)
Complete name : ./736554c1e06844baa8e9077999357881.mkv
Format : Matroska
Format version : Version 4 / Version 2
File size : 385 MiB
Duration : 11 min 23 s
Overall bit rate : 4 724 kb/s
Encoded date : UTC 2019-12-03 00:40:18
Writing application : mkvmerge v40.0.0 ('Old Town Road + Pony') 64-bit
Writing library : libebml v1.3.9 + libmatroska v1.5.2

Video
ID : 1
Format : AVC
Format/Info : Advanced Video Codec
Format profile : High@L4
Format settings : CABAC / 4 Ref Frames
Format settings, CABAC : Yes
Format settings, RefFrames : 4 frames
Codec ID : V_MPEG4/ISO/AVC
Duration : 11 min 23 s
Bit rate mode : Constant
Bit rate : 4 082 kb/s
Nominal bit rate : 10 000 kb/s
Width : 1 920 pixels
Height : 1 080 pixels
Display aspect ratio : 16:9
Frame rate mode : Constant
Frame rate : 23.976 (24000/1001) FPS
Color space : YUV
Chroma subsampling : 4:2:0
Bit depth : 8 bits
Scan type : Progressive
Bits/(Pixel*Frame) : 0.082
Stream size : 333 MiB (86%)
Default : Yes
Forced : No
Color range : Limited
Color primaries : BT.709
Transfer characteristics : BT.709
Matrix coefficients : BT.709

Audio
ID : 2
Format : E-AC-3
Format/Info : Enhanced Audio Coding 3
Format settings, Endianness : Big
Codec ID : A_EAC3
Duration : 11 min 23 s
Bit rate mode : Constant
Bit rate : 640 kb/s
Channel(s) : 6 channels
Channel positions : Front: L C R, Side: L R, LFE
Sampling rate : 48.0 kHz
Frame rate : 187.500 FPS (256 SPF)
Compression mode : Lossy
Stream size : 52.2 MiB (14%)
Language : English
Service kind : Complete Main
Default : Yes
Forced : No

Text
ID : 3
Format : UTF-8
Codec ID : S_TEXT/UTF8
Codec ID/Info : UTF-8 Plain Text
Duration : 11 min 7 s
Bit rate : 82 b/s
Count of elements : 237
Stream size : 6.73 KiB (0%)
Title : SDH
Language : English
Default : No
Forced : No





DC Super Hero Girls S01E29


DC Super Hero Girls S01E29


DC Super Hero Girls S01E29


DC Super Hero Girls S01E29


DC Super Hero Girls S01E29

All episodes