Index
# A B C D E F G H I J K L M N O P Q R S T U V W Y Z
Tags
Language
Tags

Featured TV Shows


DC's Legends of Tomorrow S04E01

Posted By: Tavaz
720p (HD) / WEB-DL IMDb
DC's Legends of Tomorrow S04E01

DC's Legends of Tomorrow S04E01
WEB-DL | MKV | 1280x720 | English | H264 @ 3061 kbps | E-AC-3 @ 640 kbps | 42 min 28 s | 1.10 GiB
Subtitles: English
Genre: Drama


When heroes alone are not enough … the world needs legends. Having seen the future, one he will desperately try to prevent from happening, time-traveling rogue Rip Hunter is tasked with assembling a disparate group of both heroes and villains to confront an unstoppable threat — one in which not only is the planet at stake, but all of time itself. Can this ragtag team defeat an immortal threat unlike anything they have ever known?

14381e914a0846e4b3a40a9d4ae178ea.mkv (1.1 GB)



General
Unique ID : 98421607993589819598470157846561024640 (0x4A0B4FEC66EF97927064B2BD5B19EA80)
Complete name : ./14381e914a0846e4b3a40a9d4ae178ea.mkv
Format : Matroska
Format version : Version 4 / Version 2
File size : 1.10 GiB
Duration : 42 min 28 s
Overall bit rate : 3 704 kb/s
Encoded date : UTC 2018-10-23 12:47:17
Writing application : mkvmerge v9.8.0 ('Kuglblids') 64bit
Writing library : libebml v1.3.4 + libmatroska v1.4.5

Video
ID : 1
Format : AVC
Format/Info : Advanced Video Codec
Format profile : High@L3.1
Format settings : CABAC / 5 Ref Frames
Format settings, CABAC : Yes
Format settings, RefFrames : 5 frames
Codec ID : V_MPEG4/ISO/AVC
Duration : 42 min 28 s
Bit rate : 3 062 kb/s
Width : 1 280 pixels
Height : 720 pixels
Display aspect ratio : 16:9
Frame rate mode : Constant
Frame rate : 23.976 (24000/1001) FPS
Color space : YUV
Chroma subsampling : 4:2:0
Bit depth : 8 bits
Scan type : Progressive
Bits/(Pixel*Frame) : 0.139
Stream size : 930 MiB (83%)
Default : Yes
Forced : No
Color range : Limited
Color primaries : BT.709
Transfer characteristics : BT.709
Matrix coefficients : BT.709

Audio
ID : 2
Format : E-AC-3
Format/Info : Enhanced Audio Coding 3
Format settings, Endianness : Big
Codec ID : A_EAC3
Duration : 42 min 28 s
Bit rate mode : Constant
Bit rate : 640 kb/s
Channel(s) : 6 channels
Channel positions : Front: L C R, Side: L R, LFE
Sampling rate : 48.0 kHz
Frame rate : 187.500 FPS (256 SPF)
Compression mode : Lossy
Stream size : 194 MiB (17%)
Language : English
Service kind : Complete Main
Default : Yes
Forced : No

Text #1
ID : 3
Format : UTF-8
Codec ID : S_TEXT/UTF8
Codec ID/Info : UTF-8 Plain Text
Duration : 42 min 21 s
Bit rate : 78 b/s
Count of elements : 761
Stream size : 24.3 KiB (0%)
Language : English
Default : No
Forced : No

Text #2
ID : 4
Format : UTF-8
Codec ID : S_TEXT/UTF8
Codec ID/Info : UTF-8 Plain Text
Duration : 42 min 21 s
Bit rate : 86 b/s
Count of elements : 891
Stream size : 26.9 KiB (0%)
Title : SDH
Language : English
Default : No
Forced : No





DC's Legends of Tomorrow S04E01


DC's Legends of Tomorrow S04E01


DC's Legends of Tomorrow S04E01


DC's Legends of Tomorrow S04E01


DC's Legends of Tomorrow S04E01

All episodes