Index
# A B C D E F G H I J K L M N O P Q R S T U V W Y Z
Tags
Language
Tags

Featured TV Shows


DC's Legends of Tomorrow S06E15

Posted By: Tavaz
1080p (FullHD) / WEBRip IMDb
DC's Legends of Tomorrow S06E15

DC's Legends of Tomorrow S06E15
WEBRip | MKV | 1920x1080 | English | H264 @ 9511 kbps | E-AC-3 @ 640 kbps | 42 min 22 s | 3.01 GiB
Subtitles: English
Genre: Drama


When heroes alone are not enough … the world needs legends. Having seen the future, one he will desperately try to prevent from happening, time-traveling rogue Rip Hunter is tasked with assembling a disparate group of both heroes and villains to confront an unstoppable threat — one in which not only is the planet at stake, but all of time itself. Can this ragtag team defeat an immortal threat unlike anything they have ever known?

85c5c94bdd044bf38f7c729a7ca1d03c.mkv (3.0 GB)



General
Unique ID : 30538508608096206240828454789679392547 (0x16F980B8B704EDAE6C6FDE625DCFA723)
Complete name : ./85c5c94bdd044bf38f7c729a7ca1d03c.mkv
Format : Matroska
Format version : Version 4 / Version 2
File size : 3.01 GiB
Duration : 42 min 22 s
Overall bit rate : 10.2 Mb/s
Writing application : mkvmerge v54.0.0 ('F Maj Pixie') 64-bit
Writing library : libebml v1.4.2 + libmatroska v1.6.3

Video
ID : 1
Format : AVC
Format/Info : Advanced Video Codec
Format profile : High@L4
Format settings : CABAC / 4 Ref Frames
Format settings, CABAC : Yes
Format settings, RefFrames : 4 frames
Codec ID : V_MPEG4/ISO/AVC
Duration : 42 min 22 s
Bit rate mode : Constant
Bit rate : 9 511 kb/s
Nominal bit rate : 10 000 kb/s
Width : 1 920 pixels
Height : 1 080 pixels
Display aspect ratio : 16:9
Frame rate mode : Constant
Frame rate : 23.976 (24000/1001) FPS
Color space : YUV
Chroma subsampling : 4:2:0
Bit depth : 8 bits
Scan type : Progressive
Bits/(Pixel*Frame) : 0.191
Stream size : 2.82 GiB (94%)
Default : Yes
Forced : No
Color range : Limited
Color primaries : BT.709
Transfer characteristics : BT.709
Matrix coefficients : BT.709

Audio
ID : 2
Format : E-AC-3
Format/Info : Enhanced Audio Coding 3
Format settings, Endianness : Big
Codec ID : A_EAC3
Duration : 42 min 22 s
Bit rate mode : Constant
Bit rate : 640 kb/s
Channel(s) : 6 channels
Channel positions : Front: L C R, Side: L R, LFE
Sampling rate : 48.0 kHz
Frame rate : 187.500 FPS (256 SPF)
Compression mode : Lossy
Stream size : 194 MiB (6%)
Language : English
Service kind : Complete Main
Default : Yes
Forced : No

Text #1
ID : 3
Format : UTF-8
Codec ID : S_TEXT/UTF8
Codec ID/Info : UTF-8 Plain Text
Duration : 41 min 49 s
Bit rate : 80 b/s
Count of elements : 808
Stream size : 24.6 KiB (0%)
Language : English
Default : No
Forced : No

Text #2
ID : 4
Format : UTF-8
Codec ID : S_TEXT/UTF8
Codec ID/Info : UTF-8 Plain Text
Duration : 41 min 51 s
Bit rate : 84 b/s
Count of elements : 883
Stream size : 26.0 KiB (0%)
Title : SDH
Language : English
Default : No
Forced : No





DC's Legends of Tomorrow S06E15


DC's Legends of Tomorrow S06E15


DC's Legends of Tomorrow S06E15


DC's Legends of Tomorrow S06E15


DC's Legends of Tomorrow S06E15

All episodes