Index
# A B C D E F G H I J K L M N O P Q R S T U V W Y Z
Tags
Language
Tags

Featured TV Shows


Legends of Tomorrow S04E03

Posted By: Tavaz
1080p (FullHD) / WEBRip IMDb
Legends of Tomorrow S04E03

Legends of Tomorrow S04E03
WEB-DL | MKV | 1920x1080 | English / Deutsch | H264 @ 7357 kbps | E-AC-3 @ 256 kbps | 40 min 41 s | 2.24 GiB
Genre: Drama


Die Superhelden-Serie Legends of Tomorrow ist im gleichen Universum wie Arrow und The Flash angesiedelt. Seit der Ankunft des grünen Bogenschützen und des roten Flitzers hat sich die Welt allerdings gewaltig verändert. Helden alleine reichen nicht mehr, um die Menschen von Star City und Central City zu beschützen. Eine finstere Macht erhebt sich am Horizont - und um diese zu besiegen, benötigt es mindestens eine Handvoll lebender Legenden. Nachdem der Zeitreisende Rip Hunter eine düstere Vision der Zukunft gesehen hat, bleibt ihm keine andere Wahl, als ein Team zusammenzutrommeln, das sowohl aus Helden als auch aus ihren Bösewichtern besteht. Nur so kann die gigantische Bedrohung, die sich mit unheilvollen Vorzeichen ankündigt, abgewehrt werden. Das Überleben der gesamten Menschheit steht auf dem Spiel. Doch wie wird Rip Hunter seine – im Grunde verfeindeten Wunschkandidaten – zusammenführen?

lots04e03.mkv (2.2 GB)



General
Unique ID : 301907338255421384138343460226469223800 (0xE3213D026275960E058BCDE322145D78)
Complete name : ./lots04e03.mkv
Format : Matroska
Format version : Version 4 / Version 2
File size : 2.24 GiB
Duration : 40 min 41 s
Overall bit rate mode : Constant
Overall bit rate : 7 872 kb/s
Encoded date : UTC 2020-03-11 14:17:17
Writing application : mkvmerge v9.8.0 ('Kuglblids') 64bit
Writing library : libebml v1.3.9 + libmatroska v1.4.5

Video
ID : 1
Format : AVC
Format/Info : Advanced Video Codec
Format profile : Main@L4
Format settings : CABAC / 4 Ref Frames
Format settings, CABAC : Yes
Format settings, RefFrames : 4 frames
Codec ID : V_MPEG4/ISO/AVC
Duration : 40 min 41 s
Bit rate mode : Constant
Bit rate : 7 358 kb/s
Nominal bit rate : 9 000 kb/s / 9 000 kb/s
Width : 1 920 pixels
Height : 1 080 pixels
Display aspect ratio : 16:9
Frame rate mode : Constant
Frame rate : 25.000 FPS
Color space : YUV
Chroma subsampling : 4:2:0
Bit depth : 8 bits
Scan type : Progressive
Bits/(Pixel*Frame) : 0.142
Stream size : 2.09 GiB (93%)
Writing library : x264 core 155
Encoding settings : cabac=1 / ref=2 / deblock=1:-1:-1 / analyse=0x1:0x131 / me=umh / subme=10 / psy=1 / psy_rd=1.00:0.15 / mixed_ref=1 / me_range=24 / chroma_me=1 / trellis=2 / 8x8dct=0 / cqm=0 / deadzone=21,11 / fast_pskip=1 / chroma_qp_offset=-3 / threads=36 / lookahead_threads=3 / sliced_threads=0 / slices=1 / nr=0 / decimate=1 / interlaced=0 / bluray_compat=0 / stitchable=1 / constrained_intra=0 / bframes=3 / b_pyramid=2 / b_adapt=2 / b_bias=0 / direct=3 / weightb=1 / open_gop=0 / weightp=2 / keyint=50 / keyint_min=2 / scenecut=0 / intra_refresh=0 / rc_lookahead=50 / rc=cbr / mbtree=1 / bitrate=9000 / ratetol=1.0 / qcomp=0.60 / qpmin=0 / qpmax=69 / qpstep=4 / vbv_maxrate=9000 / vbv_bufsize=9000 / nal_hrd=cbr / filler=1 / ip_ratio=1.40 / aq=3:1.00
Language : English
Default : Yes
Forced : No

Audio #1
ID : 2
Format : E-AC-3
Format/Info : Enhanced Audio Coding 3
Format settings, Endianness : Big
Codec ID : A_EAC3
Duration : 40 min 41 s
Bit rate mode : Constant
Bit rate : 256 kb/s
Channel(s) : 6 channels
Channel positions : Front: L C R, Side: L R, LFE
Sampling rate : 48.0 kHz
Frame rate : 187.500 FPS (256 SPF)
Compression mode : Lossy
Stream size : 74.5 MiB (3%)
Language : German
Service kind : Complete Main
Default : Yes
Forced : No

Audio #2
ID : 3
Format : E-AC-3
Format/Info : Enhanced Audio Coding 3
Format settings, Endianness : Big
Codec ID : A_EAC3
Duration : 40 min 41 s
Bit rate mode : Constant
Bit rate : 256 kb/s
Channel(s) : 6 channels
Channel positions : Front: L C R, Side: L R, LFE
Sampling rate : 48.0 kHz
Frame rate : 187.500 FPS (256 SPF)
Compression mode : Lossy
Stream size : 74.5 MiB (3%)
Language : English
Service kind : Complete Main
Default : No
Forced : No





Legends of Tomorrow S04E03


Legends of Tomorrow S04E03


Legends of Tomorrow S04E03


Legends of Tomorrow S04E03


Legends of Tomorrow S04E03

All episodes